Browse Collections Artists Sources   Search Dates

Add Show    List Management    Help


Grateful Dead 03/25/83
Compton Terrace Amphitheatre, Tempe, AZ
Comments Add Comment    Source Collectors    Add to Collection    Add to Want List    History
Source # 134371 Other Sources
Entered by Matt Vernon
Checksums flac-md5 , ffp
Disc Counts 0 / 0
Media Size Compressed: 853.34 MB (894787584 bytes)
Uncompressed: 1.31 GB (1408507796 bytes)
Date Circulated
Date Added
09/20/2015
09/20/2015
Source Summary flac16; AUD: Nakamichi CM300/CP4 shotguns > Sony TC-D5 > Maxell XLII (S1) and Hitachi ME-Metal (S2). Set up FOB, recording by Brian Schley. Transfer: MAC > Nakamichi CR-5A > Edirol FA-66 > Wavelab 2448 > CD-Wave (24bit output) > R8Brain > TLH > FLAC 1644 tagged. Transferred by Andrew F. 09/2015 
  Archive
Source Information - Download Text | Download Zip
GRATEFUL DEAD
Compton Terrace
Tempe AZ
03-25-1983

16bit/44.1kHz file-set

s1t01 Cold Rain & Snow
s1t02 Minglewood Blues
s1t03 Dire Wolf
s1t04 Brother Esau
s1t05 Big Railroad Blues
s1t06 Me & My Uncle >
s1t07 Big River
s1t08 Tennessee Jed
s1t09 Let it Grow

s2t01 Help on the Way > Slipknot >
s2t02 Franklin's Tower >
s2t03 Playin' in the Band >
s2t04 Drums >
s2t05 Space >
s2t06 Throwing Stones >
s2t07 Not Fade Away >
s2t08 Black Peter >
s2t09 Sugar Magnolia
s2t10 Encore: Don't Ease Me In

AUD: Nakamichi CM300/CP4 shotguns > Sony TC-D5 > Maxell XLII (S1)
and Hitachi ME-Metal (S2). Set up FOB, recording by Brian Schley.

Transfer: MAC > Nakamichi CR-5A > Edirol FA-66 > Wavelab 2448 >
CD-Wave (24bit output) > R8Brain > TLH > FLAC 1644 tagged.
Transferred by Andrew F. 09/2015

Note: Phil road-tested his new 6-string bass at this show. Patches
from ID-7350 covers tape-flip and spots where the tape broke: Drums
0:28 > 0:30, Drums 4:09 > 5:12, and in Not Fade Away 4:41 > 4:43.
Thanks to Jon Pasternak & Charlie McGuth for organizing this project!

    length     expanded size    cdr  WAVE problems  fmt   ratio  filename
     7:23.19       78189932 B   ---   --   ---xx   flac  0.6152  gd1983-03-25s1t01.flac
     8:50.67       93649628 B   ---   --   ---xx   flac  0.6238  gd1983-03-25s1t02.flac
     3:51.10       40771964 B   ---   --   ---xx   flac  0.6205  gd1983-03-25s1t03.flac
     4:56.13       52245020 B   ---   --   ---xx   flac  0.6379  gd1983-03-25s1t04.flac
     5:07.31       54227756 B   ---   --   ---xx   flac  0.6523  gd1983-03-25s1t05.flac
     3:12.12       33897068 B   ---   --   ---xx   flac  0.6411  gd1983-03-25s1t06.flac
     6:24.65       67890524 B   ---   --   ---xx   flac  0.6537  gd1983-03-25s1t07.flac
     8:01.35       84930764 B   ---   --   ---xx   flac  0.6327  gd1983-03-25s1t08.flac
    11:11.33      118442060 B   ---   --   ---xx   flac  0.6319  gd1983-03-25s1t09.flac
     8:03.71       85368236 B   ---   --   ---xx   flac  0.6468  gd1983-03-25s2t01.flac
     9:47.10      103570364 B   ---   --   ---xx   flac  0.6683  gd1983-03-25s2t02.flac
    11:18.64      119749772 B   ---   --   ---xx   flac  0.6555  gd1983-03-25s2t03.flac
     5:32.49       58680092 B   ---   --   ---xx   flac  0.6322  gd1983-03-25s2t04.flac
     5:11.12       54888668 B   ---   --   ---xx   flac  0.5874  gd1983-03-25s2t05.flac
     6:45.15       71477324 B   ---   --   ---xx   flac  0.6352  gd1983-03-25s2t06.flac
     5:50.44       61843532 B   ---   --   ---xx   flac  0.6251  gd1983-03-25s2t07.flac
     8:52.01       93847196 B   ---   --   ---xx   flac  0.6156  gd1983-03-25s2t08.flac
     9:23.71       99480236 B   ---   --   ---xx   flac  0.6404  gd1983-03-25s2t09.flac
     3:20.33       35357660 B   ---   --   ---xx   flac  0.6140  gd1983-03-25s2t10.flac
   133:04.55     1408507796 B                            0.6352  (19 files)

No errors occured.



Show Checksums
flac-md5
0476aff5c61b2d8a0775689c3982df2f *gd1983-03-25s1t01.flac
701ef20e0d8ed3283e480a6f5a3d4088 *gd1983-03-25s1t02.flac
dcfa216df552822ab4d7cbf470332159 *gd1983-03-25s1t03.flac
c8f3057c1e665f5c996f6f2a19e86257 *gd1983-03-25s1t04.flac
d9cb0a5ef3a0b9714e6d70245cc05661 *gd1983-03-25s1t05.flac
a692eedb099c67d39bb1c17c7e908fbf *gd1983-03-25s1t06.flac
a55a25da00ad46712e7b747fb68c25c7 *gd1983-03-25s1t07.flac
e07fef636fe14887433df879739bf7fc *gd1983-03-25s1t08.flac
3edf772e86630e5888cb9afa4f6a01e9 *gd1983-03-25s1t09.flac
600e259262a8f323fed1c61399622e8e *gd1983-03-25s2t01.flac
0536462dfbb2d92073a842944711c5dd *gd1983-03-25s2t02.flac
f88759e6fdf5973501af0193fbc62d5b *gd1983-03-25s2t03.flac
3dca369ea26b092808087b433d04fbf8 *gd1983-03-25s2t04.flac
138b66d6b483a1a99a51ae5e6751c815 *gd1983-03-25s2t05.flac
ed98b1756cfdbef61258376ff6c40380 *gd1983-03-25s2t06.flac
17fd035c7d023abae430cc36269a27b5 *gd1983-03-25s2t07.flac
17d9f85c2702ab76901c0a8e88e04bf3 *gd1983-03-25s2t08.flac
420f3fa8fd6cfbace052be7fc7b8882a *gd1983-03-25s2t09.flac
a070eb491b3c9c823f9d6930508b3a72 *gd1983-03-25s2t10.flac
ffp
gd1983-03-25s1t01.flac:7b1edaca0e2f324be8ba3cda7a3d6df8
gd1983-03-25s1t02.flac:f021dd5a79cb4bb0dd6959567d8748dd
gd1983-03-25s1t03.flac:07bf3dc18574dcd8c5f89811fcb06b69
gd1983-03-25s1t04.flac:a58fc6563648e9ae55a22a64d8a15e3e
gd1983-03-25s1t05.flac:c334066cc226ffb64ea1e6e10612f63b
gd1983-03-25s1t06.flac:e66330b474b4480a7121c252981ba16b
gd1983-03-25s1t07.flac:3d2646e541494c9812df59b122b2c082
gd1983-03-25s1t08.flac:a951edffe124f854041f93758591d228
gd1983-03-25s1t09.flac:0e71642ab4cb042bc9995d1e9cfff0d9
gd1983-03-25s2t01.flac:27a3aa3ed73d03d55de9ab56cc7d8182
gd1983-03-25s2t02.flac:b15be3c916bfaf60da49bd9fbd3d61c6
gd1983-03-25s2t03.flac:4ac2b1a01985a53fa73656fb4aaee05e
gd1983-03-25s2t04.flac:92e7e3dccec0076e0d005aff41af04a0
gd1983-03-25s2t05.flac:e4757e610f78efffe2dc716435127238
gd1983-03-25s2t06.flac:a9ac59f81d0ffea6d1b191b106b05758
gd1983-03-25s2t07.flac:ddaee1928b6f0d4156acaaad018682ad
gd1983-03-25s2t08.flac:e639b64b02ca94dc75aac158a54c9bf7
gd1983-03-25s2t09.flac:43d09ff50c25a8688adb176db02db9fc
gd1983-03-25s2t10.flac:b317791e02dc00439bca4a68c3eed745

Comments
Add Comment
Other Sources (comments)
FOB>3 Senn.... (1) SBD -> Cassette Master ->... (0) flac24; AUD:... (0) flac16; Source Info:... (0) flac16/44.1 ... (0) flac24/48 ... (0)
Date User Comment