Browse Collections Artists Sources   Search Dates

Add Show    List Management    Help


Grateful Dead 07/04/81
Manor Downs, Austin, TX
Comments Add Comment    Source Collectors    Add to Collection    Add to Want List    History
Source # 134381 Other Sources
Entered by Matt Vernon
Checksums ffp , flac-md5
Disc Counts 0 / 0
Media Size Compressed: 1.8 GB (1934934016 bytes)
Uncompressed: 2.51 GB (2691955028 bytes)
Date Circulated
Date Added
09/25/2015
09/25/2015
Source Summary flac24; AUD: Unknown mics > lead deck > Sony TC-D5 > Maxell XLIIS-90's, FOB recording by Jon Bernstein. Transfer: MAC > Nakamichi CR-5A > Edirol FA-66 > Wavelab 2448 > CD-Wave (24bit output) > TLH > FLAC 2448 tagged. Transferred by Andrew F. 09/2015 
  Archive
Source Information - Download Text | Download Zip
GRATEFUL DEAD
Manor Downs
Austin TX
07-04-1981

24bit/48kHz file-set

s1t01 crowd
s1t02 Jack Straw
s1t03 Peggy-O
s1t04 Me & My Uncle >
s1t05 Big River
s1t06 Loser
s1t07 Little Red Rooster
s1t08 Tennessee Jed >
s1t09 Minglewood Blues
s1t10 China Cat Sunflower >
s1t11 I Know You Rider

s2t01 crowd
s2t02 Feel Like a Stranger
s2t03 Birdsong
s2t04 Playin' in the Band >
s2t05 Drums// (tape flip)
s2t06 Space >
s2t07 Not Fade Away >
s2t08 Wharf Rat >
s2t09 Sugar Magnolia
s2t10 crowd
s2t11 Encore: One More Saturday Night

AUD: Unknown mics > lead deck > Sony TC-D5 > Maxell XLIIS-90's,
FOB recording by Jon Bernstein.

Transfer: MAC > Nakamichi CR-5A > Edirol FA-66 > Wavelab 2448 >
CD-Wave (24bit output) > TLH > FLAC 2448 tagged. Transferred by
Andrew F. 09/2015

    length     expanded size    cdr  WAVE problems  fmt   ratio  filename
     1:27.320      25148204 B   cxx   --   ---xx   flac  0.6859  gd1981-07-04s1t01.flac
     6:20.173     109489964 B   cxx   --   ---xx   flac  0.7306  gd1981-07-04s1t02.flac
     8:15.200     142617644 B   cxx   --   ---xx   flac  0.7061  gd1981-07-04s1t03.flac
     3:10.240      54789164 B   cxx   --   ---xx   flac  0.7213  gd1981-07-04s1t04.flac
     5:52.973     101656364 B   cxx   --   ---xx   flac  0.7302  gd1981-07-04s1t05.flac
     7:06.787     122914604 B   cxx   --   ---xx   flac  0.7209  gd1981-07-04s1t06.flac
     8:51.720     153135404 B   cxx   --   ---xx   flac  0.7292  gd1981-07-04s1t07.flac
     8:21.400     144403244 B   cxx   --   ---xx   flac  0.7170  gd1981-07-04s1t08.flac
     6:43.040     116075564 B   cxx   --   ---xx   flac  0.7222  gd1981-07-04s1t09.flac
     5:50.133     100838444 B   cxx   --   ---xx   flac  0.7258  gd1981-07-04s1t10.flac
     6:23.431     110428214 B   cxx   --   ---xx   flac  0.7265  gd1981-07-04s1t11.flac
     1:37.200      27993644 B   cxx   --   ---xx   flac  0.6712  gd1981-07-04s2t01.flac
     9:24.187     162485804 B   cxx   --   ---xx   flac  0.7238  gd1981-07-04s2t02.flac
    11:20.853     196085804 B   cxx   --   ---xx   flac  0.7204  gd1981-07-04s2t03.flac
    15:02.840     260017964 B   cxx   --   ---xx   flac  0.7242  gd1981-07-04s2t04.flac
     7:15.866     125529512 B   cxx   --   ---xx   flac  0.6820  gd1981-07-04s2t05.flac
     6:39.560     115073324 B   cxx   --   ---xx   flac  0.6837  gd1981-07-04s2t06.flac
    10:38.000     183744044 B   cxx   --   ---xx   flac  0.7249  gd1981-07-04s2t07.flac
    10:00.293     172884524 B   cxx   --   ---xx   flac  0.7121  gd1981-07-04s2t08.flac
     9:57.933     172204844 B   cxx   --   ---xx   flac  0.7373  gd1981-07-04s2t09.flac
     0:42.027      12103724 B   cxx   --   ---xx   flac  0.6773  gd1981-07-04s2t10.flac
     4:45.885      82335026 B   cxx   --   ---xx   flac  0.7336  gd1981-07-04s2t11.flac
   155:47.063    2691955028 B                            0.7188  (22 files)

No errors occured.



Show Checksums
ffp
gd1981-07-04s1t01.flac:fb8f7ae7ef6418a91a472e0067ad8cb0
gd1981-07-04s1t02.flac:ceaf5fc640939b3c157bffd3e12b3183
gd1981-07-04s1t03.flac:e2bb0ac1c95faf615aed89399d206044
gd1981-07-04s1t04.flac:a0c9269300f1afeb98d0847697112616
gd1981-07-04s1t05.flac:42e27440226c65a64b40fc168a615859
gd1981-07-04s1t06.flac:9998925438f45c8fbce8f8351bb9bf2d
gd1981-07-04s1t07.flac:357a2b18111f3e6d269aa0d332dbc61e
gd1981-07-04s1t08.flac:474c9767e03b2a6ff6c817a08fe00671
gd1981-07-04s1t09.flac:5c7d89a7d1afb13f8d8b69ee0cf0ddaf
gd1981-07-04s1t10.flac:3dc1eb649f8990ac8070f7aa138e5ef1
gd1981-07-04s1t11.flac:9354913f711d43cfa44530c63d9bd103
gd1981-07-04s2t01.flac:06fa60cdd899b60c7fadfa82b02bc318
gd1981-07-04s2t02.flac:751fdff54c04ba12d4642c92d2f1c120
gd1981-07-04s2t03.flac:70f942e76e74aa016ce51224cbf5d9a4
gd1981-07-04s2t04.flac:3d144dc8595a0f1cfdf6a5296b53a2c8
gd1981-07-04s2t05.flac:d87e70de7e36f00665b0519aa5631d71
gd1981-07-04s2t06.flac:46ec18e78827fed2bc532ecead751fce
gd1981-07-04s2t07.flac:f442a28b3fe7cb7b84c17af670ceae98
gd1981-07-04s2t08.flac:a277cb80f41eac29a71cfb21d166b0a4
gd1981-07-04s2t09.flac:78882527bf2a28b3739d902f6b0b8b6d
gd1981-07-04s2t10.flac:5f4377d6636b96257e45f97221a2c14e
gd1981-07-04s2t11.flac:a38b874cf1983cec337108b0d421288c
flac-md5
7731a43996b2e472e6d7eb637536261c *gd1981-07-04s1t01.flac
ce38629d4dd97d80682ec1f49618121d *gd1981-07-04s1t02.flac
2d51dd70259027743ca58fbe8ed4d2b1 *gd1981-07-04s1t03.flac
32ae859513e95719a449159fe4ade8f1 *gd1981-07-04s1t04.flac
9e7870ad5129bb6f8e41c15bed0f6197 *gd1981-07-04s1t05.flac
2a9194cb0aba12861d08276497d6512f *gd1981-07-04s1t06.flac
4b93e64cb1db2facbd1d03df1c3503d2 *gd1981-07-04s1t07.flac
7082ae5e8ab6b18cfe939787d4cf853c *gd1981-07-04s1t08.flac
a4043c3400fe8fea4942c147904ebb8a *gd1981-07-04s1t09.flac
090db2e64554d02e2eb47b95a0079dcb *gd1981-07-04s1t10.flac
faafd5cf2fe14aa248f82ab4877a474b *gd1981-07-04s1t11.flac
16e5e8b3c5e9871e543049b47343b538 *gd1981-07-04s2t01.flac
b670a5fae91a783f7fbf69800fc632bb *gd1981-07-04s2t02.flac
7125c2dec5c19a58d3223d1e4b5a99ed *gd1981-07-04s2t03.flac
bad41cc87dee115faf1bed701b54e5fe *gd1981-07-04s2t04.flac
537587e912e2cf00d8cdda58b9d9cfd6 *gd1981-07-04s2t05.flac
14cd8b150d57954352f2524cc4e7cbda *gd1981-07-04s2t06.flac
4e8624f2f5fee15938e944fd08b4f379 *gd1981-07-04s2t07.flac
cde0c032d64b5fd313cece8fc6199a41 *gd1981-07-04s2t08.flac
84e64c72db26f52455e8471147b57f5c *gd1981-07-04s2t09.flac
eb0fd1169c958b1d1c6d32e721c8853d *gd1981-07-04s2t10.flac
0acc1937803c24deda39b3d41246432b *gd1981-07-04s2t11.flac

Comments
Add Comment
Other Sources (comments)
Master FOB Audience... (1) Recording Info:SBD ->... (0) flac16; SBD ->... (0) flac16; Nakamichi... (0) flac16; Recording... (0) flac16; AUD: Unknown... (0) flac16/48kHz; Source... (0)
Date User Comment