Browse Collections Artists Sources   Search Dates

Add Show    List Management    Help


Grateful Dead 07/04/81
Manor Downs, Austin, TX
Comments Add Comment    Source Collectors    Add to Collection    Add to Want List    History
Source # 134382 Other Sources
Entered by Matt Vernon
Checksums flac-md5 , ffp
Disc Counts 0 / 0
Media Size Compressed: 925.57 MB (970530816 bytes)
Uncompressed: 1.54 GB (1648823528 bytes)
Date Circulated
Date Added
09/25/2015
09/25/2015
Source Summary flac16; AUD: Unknown mics > lead deck > Sony TC-D5 > Maxell XLIIS-90's, FOB recording by Jon Bernstein. Transfer: MAC > Nakamichi CR-5A > Edirol FA-66 > Wavelab 2448 > CD-Wave (24bit output) > R8Brain > TLH > FLAC 1644 tagged. Transferred by Andrew F. 09/2015 
  Archive
Source Information - Download Text | Download Zip
GRATEFUL DEAD
Manor Downs
Austin TX
07-04-1981

16bit/44.1kHz file-set

s1t01 crowd
s1t02 Jack Straw
s1t03 Peggy-O
s1t04 Me & My Uncle >
s1t05 Big River
s1t06 Loser
s1t07 Little Red Rooster
s1t08 Tennessee Jed >
s1t09 Minglewood Blues
s1t10 China Cat Sunflower >
s1t11 I Know You Rider

s2t01 crowd
s2t02 Feel Like a Stranger
s2t03 Birdsong
s2t04 Playin' in the Band >
s2t05 Drums// (tape flip)
s2t06 Space >
s2t07 Not Fade Away >
s2t08 Wharf Rat >
s2t09 Sugar Magnolia
s2t10 crowd
s2t11 Encore: One More Saturday Night

AUD: Unknown mics > lead deck > Sony TC-D5 > Maxell XLIIS-90's,
FOB recording by Jon Bernstein.

Transfer: MAC > Nakamichi CR-5A > Edirol FA-66 > Wavelab 2448 >
CD-Wave (24bit output) > R8Brain > TLH > FLAC 1644 tagged.
Transferred by Andrew F. 09/2015

    length     expanded size    cdr  WAVE problems  fmt   ratio  filename
     1:27.24       15403292 B   ---   --   ---xx   flac  0.5395  gd1981-07-04s1t01.flac
     6:20.13       67062620 B   ---   --   ---xx   flac  0.6086  gd1981-07-04s1t02.flac
     8:15.15       87353324 B   ---   --   ---xx   flac  0.5672  gd1981-07-04s1t03.flac
     3:10.18       33558380 B   ---   --   ---xx   flac  0.5929  gd1981-07-04s1t04.flac
     5:52.73       62264540 B   ---   --   ---xx   flac  0.6071  gd1981-07-04s1t05.flac
     7:06.59       75285212 B   ---   --   ---xx   flac  0.5909  gd1981-07-04s1t06.flac
     8:51.54       93795452 B   ---   --   ---xx   flac  0.6048  gd1981-07-04s1t07.flac
     8:21.30       88447004 B   ---   --   ---xx   flac  0.5856  gd1981-07-04s1t08.flac
     6:43.03       71096300 B   ---   --   ---xx   flac  0.5946  gd1981-07-04s1t09.flac
     5:50.10       61763564 B   ---   --   ---xx   flac  0.6011  gd1981-07-04s1t10.flac
     6:23.32       67636508 B   ---   --   ---xx   flac  0.6029  gd1981-07-04s1t11.flac
     1:37.15       17146124 B   ---   --   ---xx   flac  0.5160  gd1981-07-04s2t01.flac
     9:24.14       99522572 B   ---   --   ---xx   flac  0.5969  gd1981-07-04s2t02.flac
    11:20.64      120102572 B   ---   --   ---xx   flac  0.5911  gd1981-07-04s2t03.flac
    15:02.63      159261020 B   ---   --   ---xx   flac  0.5972  gd1981-07-04s2t04.flac
     7:15.65       76886924 B   ---   --   ---xx   flac  0.5301  gd1981-07-04s2t05.flac
     6:39.42       70482428 B   ---   --   ---xx   flac  0.5314  gd1981-07-04s2t06.flac
    10:38.00      112543244 B   ---   --   ---xx   flac  0.5979  gd1981-07-04s2t07.flac
    10:00.22      105891788 B   ---   --   ---xx   flac  0.5765  gd1981-07-04s2t08.flac
     9:57.70      105475484 B   ---   --   ---xx   flac  0.6183  gd1981-07-04s2t09.flac
     0:42.02        7413548 B   ---   --   ---xx   flac  0.5201  gd1981-07-04s2t10.flac
     4:45.67       50431628 B   ---   --   ---xx   flac  0.6134  gd1981-07-04s2t11.flac
   155:47.05     1648823528 B                            0.5886  (22 files)

No errors occured.



Show Checksums
flac-md5
0c21775e1a3bcd5bba0fa6d77caec6a7 *gd1981-07-04s1t01.flac
303dae97a18d41c48d444764223e7785 *gd1981-07-04s1t02.flac
8e07802516dbdf475cebd8d38308d6bf *gd1981-07-04s1t03.flac
dc850f655112ef4a71f145da707b7e22 *gd1981-07-04s1t04.flac
6b9cc773f53ad3a86b551e0af19af2ca *gd1981-07-04s1t05.flac
e1c359f65ebdb40bb570e041dfad13f6 *gd1981-07-04s1t06.flac
0ded043eebb7e2b385488ea69827a3fb *gd1981-07-04s1t07.flac
a21c33b3629cd0c72438e489f69729a2 *gd1981-07-04s1t08.flac
af347452c8dde455ab59d494ea07bdef *gd1981-07-04s1t09.flac
aefe59475360b104d83f5c022c942bd5 *gd1981-07-04s1t10.flac
88a1ec8a954efe8457d02d93b2e9f5e4 *gd1981-07-04s1t11.flac
3640a6e7951e9ece59d299987d2a1b60 *gd1981-07-04s2t01.flac
083e8ab5abd5c777b90b31a8590c7d22 *gd1981-07-04s2t02.flac
fa8aa31542dd66b28ce08662c91e9429 *gd1981-07-04s2t03.flac
0260558fce6e9a888dd410568ca94fcc *gd1981-07-04s2t04.flac
c36f73786c08ed3084827e37512b8075 *gd1981-07-04s2t05.flac
344c12d057f83bb3aa4c340937160da1 *gd1981-07-04s2t06.flac
6eb796936fce2d53dc5b72bcab173a12 *gd1981-07-04s2t07.flac
a7814d9734d4b0e5fdf293c35e8dcbac *gd1981-07-04s2t08.flac
12c4c2c78d0c6f94140670656f046342 *gd1981-07-04s2t09.flac
7735fc690c82508d363345c4970da5d0 *gd1981-07-04s2t10.flac
ce1e019d9bea572122310213777a5479 *gd1981-07-04s2t11.flac
ffp
gd1981-07-04s1t01.flac:297914abdfa82b46cdbeb579846eea0b
gd1981-07-04s1t02.flac:47be38017083a58ba388ae00c4d78cdb
gd1981-07-04s1t03.flac:2438611ee25946706128e7f0c2da55cd
gd1981-07-04s1t04.flac:2e7ab83eeca2aee20507fe007fefb77a
gd1981-07-04s1t05.flac:84124ddaca7fefb0064a4f32e78fc805
gd1981-07-04s1t06.flac:7e64aaab1d703b562f09dac5e800264e
gd1981-07-04s1t07.flac:84f2ce4ac17141a4660ecf3712f648cd
gd1981-07-04s1t08.flac:9037bb0f286dafe7d3faebe57883fbd3
gd1981-07-04s1t09.flac:58dc630b39d0777f2ce980ee0ce38223
gd1981-07-04s1t10.flac:6011ac1ed79f80cdb68572fb53918fb8
gd1981-07-04s1t11.flac:f8fd918cc49fb5962f9a97c0af63e178
gd1981-07-04s2t01.flac:dc22b1cd2ee7cd4b72eedfb73f54c194
gd1981-07-04s2t02.flac:275faaee9cef99f96e41d04bd1afa20e
gd1981-07-04s2t03.flac:fd2fde93cd0a81361665491a57e27a5b
gd1981-07-04s2t04.flac:034c523da0b1295aa2379b4c860e6cf5
gd1981-07-04s2t05.flac:5f856a7900edbb17dab1282e2f0117d2
gd1981-07-04s2t06.flac:753f50eeda54b325ec0920eb4ffc0c91
gd1981-07-04s2t07.flac:3b8ba190a4eb2f69c0440252033ae758
gd1981-07-04s2t08.flac:87bddd0e84c864dcb8170f7bc4845282
gd1981-07-04s2t09.flac:17024325cc142ea6d1742dc1ee7998e7
gd1981-07-04s2t10.flac:baf176bf70bacf1953b31d1ab6c54ddd
gd1981-07-04s2t11.flac:50301936cb90d872e5b38e85a4d7d834

Comments
Add Comment
Other Sources (comments)
Master FOB Audience... (1) Recording Info:SBD ->... (0) flac16; SBD ->... (0) flac16; Nakamichi... (0) flac16; Recording... (0) flac24; AUD: Unknown... (0) flac16/48kHz; Source... (0)
Date User Comment