Browse Collections Artists Sources   Search Dates

Add Show    List Management    Help


Grateful Dead 09/18/87
Madison Square Garden, New York, NY
Comments Add Comment    Source Collectors    Add to Collection    Add to Want List    History
Source # 134393 Other Sources
Entered by Matt Vernon
Checksums ffp , flac-md5
Disc Counts 0 / 0
Media Size Compressed: 296 MB (310378496 bytes)
Uncompressed: 485.08 MB (508643828 bytes)
Date Circulated
Date Added
09/28/2015
09/28/2015
Source Summary flac16; Set 1 SBD: ?? > CD > EAC > .wav > Flac; From Lisa Biasi collection. EAC > flac - Kevin Tobin 
  Archive
Source Information - Download Text | Download Zip
Grateful Dead
Madison Square Garden
New York, New York
September 18, 1987

Soundboard

Set 1:
d1t01 - Tuning - Garcia Levitation
d1t02 - Hell In A Bucket
d1t03 - Sugaree
d1t04 - Walkin' Blues
d1t05 - Candyman
d1t06 - When I Paint My Masterpiece
d1t07 - Bird Song

Audio Source Information
SBD: ?? > CD > EAC > .wav > Flac

I wish I had more source information than that - 9/18/87 was one of my first video projects and my good friend Lisa Biasi sent me her cds that she had gotten from the band. The first set sounds better than anything then circulating but the 2nd second set was badly clipped and I didn't use it. As this is to be included in the new 30 trips box set - I just want to get this version out before then.

---------------------------------------------------------
- Mixed by [email protected]
- FLAC conversion 28-SEP-2015 - Trader Little Helper
- Tagged 28-SEP-2015 - Tag&Rename
---------------------------------------------------------
Speedwise the soundboard was very close compared to the video and only minor patching at the beginning to match the video.

Brokedown House Production

    length     expanded size    cdr  WAVE problems  fmt   ratio  filename
     0:53.39        9440972 B   ---   --   -----    wav  1.0000  gd1987-09-18d1t01.wav
     6:10.59       65406812 B   ---   --   -----    wav  1.0000  gd1987-09-18d1t02.wav
    10:29.11      110981516 B   ---   --   -----    wav  1.0000  gd1987-09-18d1t03.wav
     7:17.08       77105660 B   ---   --   -----    wav  1.0000  gd1987-09-18d1t04.wav
     6:50.64       72474572 B   ---   --   -----    wav  1.0000  gd1987-09-18d1t05.wav
     6:03.30       64103804 B   ---   --   -----    wav  1.0000  gd1987-09-18d1t06.wav
    10:18.49      109130492 B   ---   --   -----    wav  1.0000  gd1987-09-18d1t07.wav
    48:03.35      508643828 B                            1.0000  (7 files)




Show Checksums
ffp
gd1987-09-18d1t01.flac:2b39b2fb32a5200701d813b69097a271
gd1987-09-18d1t02.flac:46f55e16e4bd482c0264744104d1f44a
gd1987-09-18d1t03.flac:abaebb0b520c6a2db6e91da311a2ebfd
gd1987-09-18d1t04.flac:24a6bf378eba9a10768a7cda78b9faad
gd1987-09-18d1t05.flac:6841d8fec2aa1c5b14e4c989e38e8fe9
gd1987-09-18d1t06.flac:701c3ab5dc1fcdd813d1894ac112c43f
gd1987-09-18d1t07.flac:331059208c06e897b875af5babd59305
flac-md5
677a4f6b553142c1845fb0f8c650936f *gd1987-09-18d1t01.flac
3844857f224fa9f0fa464144c0898dd9 *gd1987-09-18d1t02.flac
d56d802019898cc5d7c98e96cade231a *gd1987-09-18d1t03.flac
0ca4004d913b72d813df54f05a9c5bb0 *gd1987-09-18d1t04.flac
2671b94368558f2ea5e6553d3ba71563 *gd1987-09-18d1t05.flac
91e1f18cd1e6afb5c99e1b977988402e *gd1987-09-18d1t06.flac
82b1a90dcda8313aa9a9b54d1ea584b3 *gd1987-09-18d1t07.flac

Comments
Add Comment
Other Sources (comments)
SBD; via David Finney; see... (6) sbd PCM > Dat x3 > wav >... (0) MattMan remaster of (3) Vault PCM Master->DAT.... (0) Soundboard (Healy Ultra... (7) flac16/48; Master... (4) Most likely lineage:... (0) flac16; Source:... (0) flac16; taper : Joe... (0) flac16; matrix of... (5) flac16; Master:... (0) flac24; OTS AUD: 2x... (0) flac16; shnid=20025... (2) flac16; Taper: M.... (0) flac16; 3 Source... (0) flac16; Matrix from... (0) flac16; Matrix 3... (0) DTS-Audio-CD 5.1... (0) flac16/48kHz; 5.1... (0) flac24; Recording... (0) flac16; Recording... (0)
Date User Comment
10/01/2015 Wharfrat73 Corrected typo in the info file.