Browse Collections Artists Sources   Search Dates

Add Show    List Management    Help


Grateful Dead 04/25/83
The Spectrum, Philadelphia, PA
Comments Add Comment    Source Collectors    Add to Collection    Add to Want List    History
Source # 134417 Other Sources
Entered by Matt Vernon
Checksums flac-md5 , ffp
Disc Counts 0 / 0
Media Size Compressed: 1.82 GB (1954357248 bytes)
Uncompressed: 2.44 GB (2616842194 bytes)
Date Circulated
Date Added
10/04/2015
10/04/2015
Source Summary flac24; AUD: Nakamichi CM300/CP4 shotguns > Sony TC-D5 > Maxell XLII (S1) and Hitachi ME-Metal (S2). Set up FOB, recording by Brian Schley. Transfer: MAC > Nakamichi CR-5A > Edirol FA-66 > Wavelab 2448 > CD-Wave (24bit output) > TLH > FLAC 2448 tagged. Transferred by Andrew F. 10/2015 
  Archive
Source Information - Download Text | Download Zip
GRATEFUL DEAD
Spectrum
Philadelphia PA
04-25-1983

24bit/48kHz file-set

s1t01 crowd
s1t02 Jack Straw
s1t03 Friend of the Devil
s1t04 Little Red Rooster
s1t05 Brown Eyed Women
s1t06 Cassidy
s1t07 Loser
s1t08 Brother Esau
s1t09 China Cat Sunflower >
s1t10 I Know You Rider

s2t01 Touch of Grey
s2t02 Playin' in the Band >
s2t03 Terrapin >
s2t04 Drums >
s2t05 Space >
s2t06 The Wheel >
s2t07 Playin' in the Band Reprise >
s2t08 Goin' Down the Road >
s2t09 Sugar Magnolia
s2t10 Encore: Satisfaction

AUD: Nakamichi CM300/CP4 shotguns > Sony TC-D5 > Maxell XLII (S1)
and Hitachi ME-Metal (S2). Set up FOB, recording by Brian Schley.

Transfer: MAC > Nakamichi CR-5A > Edirol FA-66 > Wavelab 2448 >
CD-Wave (24bit output) > TLH > FLAC 2448 tagged. Transferred by
Andrew F. 10/2015

Note: Tape-flip snafu, Brother Esau accidentally paused out of the
recording, entire track and first 5 seconds of China Cat Sunflower
provided by ID-119643. Patch from ID-9763 in Drums 3:06 > 7:13.
Thanks Jon Pasternak & Charlie McGuth for organizing this project!

    length     expanded size    cdr  WAVE problems  fmt   ratio  filename
     1:01.947      17840684 B   cxx   --   ---xx   flac  0.6808  gd1983-04-25s1t01.flac
     6:41.640     115672364 B   cxx   --   ---xx   flac  0.7567  gd1983-04-25s1t02.flac
     9:17.400     160531244 B   cxx   --   ---xx   flac  0.7350  gd1983-04-25s1t03.flac
     9:41.893     167585324 B   cxx   --   ---xx   flac  0.7398  gd1983-04-25s1t04.flac
     5:44.880      99325484 B   cxx   --   ---xx   flac  0.7435  gd1983-04-25s1t05.flac
     6:30.600     112492844 B   cxx   --   ---xx   flac  0.7489  gd1983-04-25s1t06.flac
     7:06.000     122688044 B   cxx   --   ---xx   flac  0.7436  gd1983-04-25s1t07.flac
     5:20.413      92279084 B   cxx   --   ---xx   flac  0.7431  gd1983-04-25s1t08.flac
     6:53.013     118947884 B   cxx   --   ---xx   flac  0.7509  gd1983-04-25s1t09.flac
     6:15.049     108014294 B   cxx   --   ---xx   flac  0.7564  gd1983-04-25s1t10.flac
     6:46.173     116977964 B   cxx   --   ---xx   flac  0.7703  gd1983-04-25s2t01.flac
    12:35.920     217705004 B   cxx   --   ---xx   flac  0.7571  gd1983-04-25s2t02.flac
    12:34.547     217309484 B   cxx   --   ---xx   flac  0.7426  gd1983-04-25s2t03.flac
     7:24.840     128113964 B   cxx   --   ---xx   flac  0.7194  gd1983-04-25s2t04.flac
    14:11.800     245318444 B   cxx   --   ---xx   flac  0.6984  gd1983-04-25s2t05.flac
     5:25.200      93657644 B   cxx   --   ---xx   flac  0.7681  gd1983-04-25s2t06.flac
     4:21.840      75409964 B   cxx   --   ---xx   flac  0.7677  gd1983-04-25s2t07.flac
     7:22.747     127511084 B   cxx   --   ---xx   flac  0.7939  gd1983-04-25s2t08.flac
     9:08.960     158100524 B   cxx   --   ---xx   flac  0.7790  gd1983-04-25s2t09.flac
     7:01.392     121360868 B   cxx   --   ---xx   flac  0.7391  gd1983-04-25s2t10.flac
   151:26.255    2616842194 B                            0.7468  (20 files)

No errors occured.



Show Checksums
flac-md5
249451fad6b66d8eef5a641ad0d75e16 *gd1983-04-25s1t01.flac
b812375452bdcbdc3b50eb7c819621a0 *gd1983-04-25s1t02.flac
f5f766bb3655a690d9378e1c6de608ef *gd1983-04-25s1t03.flac
6c5fd3ee4aee85fa9c6ba8d1040e24f3 *gd1983-04-25s1t04.flac
db58658b343c7f72f939788c27d59a22 *gd1983-04-25s1t05.flac
49deddbbad773da0ef34b6e602f868e7 *gd1983-04-25s1t06.flac
97e2951e46fb3a2da4e2e80d30104937 *gd1983-04-25s1t07.flac
374239956857b56452c7dcc78c947818 *gd1983-04-25s1t08.flac
be776ae3202dabdbb59c0a823b6dc370 *gd1983-04-25s1t09.flac
c63a31c3f0dec8824a5eb6b3c76efe28 *gd1983-04-25s1t10.flac
02ab568a0fd8d310070da525bc0d8904 *gd1983-04-25s2t01.flac
bf2b2353ad9604b3b23a76d817f9fa5c *gd1983-04-25s2t02.flac
25b844fd2f7b7caa2fabe6e69e2eda28 *gd1983-04-25s2t03.flac
2da81e2cc4cc2bfa64f27bdc8cacf649 *gd1983-04-25s2t04.flac
0965499470a525b1a90d6fe855bf0ef1 *gd1983-04-25s2t05.flac
69ef01c4acfd7178e2f687cd10227ae1 *gd1983-04-25s2t06.flac
ffc0acf6817aa435912fbcd3931d26e9 *gd1983-04-25s2t07.flac
2349b94b43a0f4384c282cf7a90b3c8c *gd1983-04-25s2t08.flac
7375c12946b61eee71d3b3f7f7ca3988 *gd1983-04-25s2t09.flac
d154d89f828912690383ec327a2d10d5 *gd1983-04-25s2t10.flac
ffp
gd1983-04-25s1t01.flac:20810e3c50e14a407257261650a7547f
gd1983-04-25s1t02.flac:45db9cac14bb103f86a99ee909f48aaa
gd1983-04-25s1t03.flac:d02499f7d9eb0c09a4945421b0b43044
gd1983-04-25s1t04.flac:bdff16c75dd59ad381f79c31b42f84b2
gd1983-04-25s1t05.flac:312006da74fc1673229d421b04576a19
gd1983-04-25s1t06.flac:2bec4703c2fe264a862e4fad22f6f194
gd1983-04-25s1t07.flac:5ac1e60c2a12bc6fab2a3e2ef4c7355f
gd1983-04-25s1t08.flac:14107185c8f6db31d30d65b03d71e84a
gd1983-04-25s1t09.flac:e4aa380ae06b3bc1c5f7ba1e9ae4ecdc
gd1983-04-25s1t10.flac:2bf8edc6d0f6e67a13d095a4a6c4f470
gd1983-04-25s2t01.flac:22838fad069c5444778d5ec79b4237e3
gd1983-04-25s2t02.flac:78395d29a01c5cf89c3517b3772c1936
gd1983-04-25s2t03.flac:21b15ab4f2a74e4d5add0adf1c7174c9
gd1983-04-25s2t04.flac:c0e7114c751e821c19166858c146795d
gd1983-04-25s2t05.flac:14074425a08c5a84c87ba1b9dc3a9548
gd1983-04-25s2t06.flac:c8b2ce1439a013e7a9ee67ecdef5e3d6
gd1983-04-25s2t07.flac:46c347c983adc6a720c9baec153fb388
gd1983-04-25s2t08.flac:cc2e4c65ff4b9665600a87e72a1fe005
gd1983-04-25s2t09.flac:2f418e41fbb14d9d47328dab070f6902
gd1983-04-25s2t10.flac:0ef576d68b959045823af3fb0f60a588

Comments
Add Comment
Other Sources (comments)
Source: Senn 421's > MC >... (0) flac16; Source:2-Nak... (0) flac16: Recorded by... (1) flac16; Set 1... (0) flac24; Set 1... (0) flac16; AUD:... (0) flac24; Master... (0) flac16; Master... (0)
Date User Comment