Browse Collections Artists Sources   Search Dates

Add Show    List Management    Help


Grateful Dead 04/25/83
The Spectrum, Philadelphia, PA
Comments Add Comment    Source Collectors    Add to Collection    Add to Want List    History
Source # 134418 Other Sources
Entered by Matt Vernon
Checksums flac-md5 , ffp
Disc Counts 0 / 0
Media Size Compressed: 968.25 MB (1015279616 bytes)
Uncompressed: 1.49 GB (1602818320 bytes)
Date Circulated
Date Added
10/04/2015
10/04/2015
Source Summary flac16; AUD: Nakamichi CM300/CP4 shotguns > Sony TC-D5 > Maxell XLII (S1) and Hitachi ME-Metal (S2). Set up FOB, recording by Brian Schley. Transfer: MAC > Nakamichi CR-5A > Edirol FA-66 > Wavelab 2448 > CD-Wave (24bit output) > R8Brain > TLH > FLAC 1644 tagged. Transferred by Andrew F. 10/2015 
  Archive
Source Information - Download Text | Download Zip
GRATEFUL DEAD
Spectrum
Philadelphia PA
04-25-1983

16bit/44.1kHz file-set

s1t01 crowd
s1t02 Jack Straw
s1t03 Friend of the Devil
s1t04 Little Red Rooster
s1t05 Brown Eyed Women
s1t06 Cassidy
s1t07 Loser
s1t08 Brother Esau
s1t09 China Cat Sunflower >
s1t10 I Know You Rider

s2t01 Touch of Grey
s2t02 Playin' in the Band >
s2t03 Terrapin >
s2t04 Drums >
s2t05 Space >
s2t06 The Wheel >
s2t07 Playin' in the Band Reprise >
s2t08 Goin' Down the Road >
s2t09 Sugar Magnolia
s2t10 Encore: Satisfaction

AUD: Nakamichi CM300/CP4 shotguns > Sony TC-D5 > Maxell XLII (S1)
and Hitachi ME-Metal (S2). Set up FOB, recording by Brian Schley.

Transfer: MAC > Nakamichi CR-5A > Edirol FA-66 > Wavelab 2448 >
CD-Wave (24bit output) > R8Brain > TLH > FLAC 1644 tagged.
Transferred by Andrew F. 10/2015

Note: Tape-flip snafu, Brother Esau accidentally paused out of the
recording, entire track and first 5 seconds of China Cat Sunflower
provided by ID-119643. Patch from ID-9763 in Drums 3:06 > 7:13.
Thanks Jon Pasternak & Charlie McGuth for organizing this project!

    length     expanded size    cdr  WAVE problems  fmt   ratio  filename
     1:01.71       10927436 B   ---   --   ---xx   flac  0.5352  gd1983-04-25s1t01.flac
     6:41.48       70849340 B   ---   --   ---xx   flac  0.6514  gd1983-04-25s1t02.flac
     9:17.30       98325404 B   ---   --   ---xx   flac  0.6158  gd1983-04-25s1t03.flac
     9:41.67      102646028 B   ---   --   ---xx   flac  0.6224  gd1983-04-25s1t04.flac
     5:44.66       60836876 B   ---   --   ---xx   flac  0.6297  gd1983-04-25s1t05.flac
     6:30.45       68901884 B   ---   --   ---xx   flac  0.6369  gd1983-04-25s1t06.flac
     7:06.00       75146444 B   ---   --   ---xx   flac  0.6291  gd1983-04-25s1t07.flac
     5:20.31       56520956 B   ---   --   ---xx   flac  0.6333  gd1983-04-25s1t08.flac
     6:53.01       72855596 B   ---   --   ---xx   flac  0.6414  gd1983-04-25s1t09.flac
     6:15.04       66159452 B   ---   --   ---xx   flac  0.6511  gd1983-04-25s1t10.flac
     6:46.13       71649020 B   ---   --   ---xx   flac  0.6719  gd1983-04-25s2t01.flac
    12:35.69      133344332 B   ---   --   ---xx   flac  0.6494  gd1983-04-25s2t02.flac
    12:34.41      133102076 B   ---   --   ---xx   flac  0.6264  gd1983-04-25s2t03.flac
     7:24.63       78469820 B   ---   --   ---xx   flac  0.5921  gd1983-04-25s2t04.flac
    14:11.60      150257564 B   ---   --   ---xx   flac  0.5524  gd1983-04-25s2t05.flac
     5:25.15       57365324 B   ---   --   ---xx   flac  0.6642  gd1983-04-25s2t06.flac
     4:21.63       46188620 B   ---   --   ---xx   flac  0.6629  gd1983-04-25s2t07.flac
     7:22.56       78100556 B   ---   --   ---xx   flac  0.7050  gd1983-04-25s2t08.flac
     9:08.72       96836588 B   ---   --   ---xx   flac  0.6824  gd1983-04-25s2t09.flac
     7:01.30       74335004 B   ---   --   ---xx   flac  0.6228  gd1983-04-25s2t10.flac
   151:26.20     1602818320 B                            0.6334  (20 files)

No errors occured.



Show Checksums
flac-md5
fef41f3ef942110c5d833f42a39052e0 *gd1983-04-25s1t01.flac
70e4d214919793582314ce1178fec92b *gd1983-04-25s1t02.flac
c0116c8337a70e94366f7fca7fe800da *gd1983-04-25s1t03.flac
e05078a8351d97dcbe6da3ac6c4d2b2e *gd1983-04-25s1t04.flac
1f3fb010a0df7642bc0389d22198023f *gd1983-04-25s1t05.flac
5bb1ea95b273f6df3bfe5fff7aca9af4 *gd1983-04-25s1t06.flac
3a3ed03082fbc5e2df3f532f4b85a6b7 *gd1983-04-25s1t07.flac
14bb2748a8c8b3355032f236681a0fa4 *gd1983-04-25s1t08.flac
d9fb6fe0ac8c27a98ce3bacae68d9fc8 *gd1983-04-25s1t09.flac
a3f9959f45dfb831bba8c7b2243c88da *gd1983-04-25s1t10.flac
01120f2ae6df4681feee7f9288b6ce73 *gd1983-04-25s2t01.flac
54e8cf357d757541d1c468d730a451a5 *gd1983-04-25s2t02.flac
5f210219474df08fe4af20fd55ccd42a *gd1983-04-25s2t03.flac
d03ce571eca4ed86004b11fbdf2501e1 *gd1983-04-25s2t04.flac
9073cf662f72c2b14c64d785ec5193cd *gd1983-04-25s2t05.flac
0584f2e8de3b120c50a242e895c33a83 *gd1983-04-25s2t06.flac
91828df263f6d706bb7429f2be90f322 *gd1983-04-25s2t07.flac
74abec158fd69e4d5f24d687f1dea72d *gd1983-04-25s2t08.flac
3dbdf6678238bd66d8625aea2d049ad3 *gd1983-04-25s2t09.flac
45a765e056ab24418037c1a39b52533b *gd1983-04-25s2t10.flac
ffp
gd1983-04-25s1t01.flac:5f0bf1adabd543589eaa90532be8ffcb
gd1983-04-25s1t02.flac:ee4bc806c40c3208a33b2154ba04dd39
gd1983-04-25s1t03.flac:4b1a892fd0e9a33933fcc2f36e8a8ec4
gd1983-04-25s1t04.flac:597602197d6a3533a1b6455061e45204
gd1983-04-25s1t05.flac:b2df12f95e4a9ccab3735407e629cae5
gd1983-04-25s1t06.flac:527b38b89ef8f97e3e0fcc66780d43f7
gd1983-04-25s1t07.flac:0f83386a6666451699b6efb46fc91835
gd1983-04-25s1t08.flac:7925c719181b860355164c620f8878b4
gd1983-04-25s1t09.flac:5055c88b2f9a5ded0e3092120e9a27c7
gd1983-04-25s1t10.flac:5ed41ca78bf09bdd3e737102c8e43a03
gd1983-04-25s2t01.flac:a2e6cdae46007b30bf6dd2f78e1dcf97
gd1983-04-25s2t02.flac:88b2a65a5050019a3fb99c0f38f2d054
gd1983-04-25s2t03.flac:262deac6dc7ad37e8e5d943169a9f9ae
gd1983-04-25s2t04.flac:79f3fc030bbe9e055abe2fa6cca38783
gd1983-04-25s2t05.flac:f85dafc1d4bdef9d1b81fcc452b00551
gd1983-04-25s2t06.flac:1f04fb0fa4f2995dbde4f66ea88cdd6a
gd1983-04-25s2t07.flac:fd18425fad1dc89cc17f8ec10225168c
gd1983-04-25s2t08.flac:1d77c7310b6093504acc260688ad260a
gd1983-04-25s2t09.flac:0c7f8f301e9bf59a50e9567094469acb
gd1983-04-25s2t10.flac:02f7b9ca6773a46f1d53918fcc577e75

Comments
Add Comment
Other Sources (comments)
Source: Senn 421's > MC >... (0) flac16; Source:2-Nak... (0) flac16: Recorded by... (1) flac16; Set 1... (0) flac24; Set 1... (0) flac24; AUD:... (0) flac24; Master... (0) flac16; Master... (0)
Date User Comment