Browse Collections Artists Sources   Search Dates

Add Show    List Management    Help


Grateful Dead 12/28/79
Oakland Auditorium Arena, Oakland, CA
Comments Add Comment    Source Collectors    Add to Collection    Add to Want List    History
Source # 134499 Other Sources
Entered by Gary Field
Checksums ffp , flac-md5
Disc Counts 0 / 0
Media Size Compressed: 1.02 GB (1093849038 bytes)
Uncompressed: 1.55 GB (1668112236 bytes)
Date Circulated
Date Added
10/19/2015
10/19/2015
Source Summary flac16; Recording Info: SBD -> Cassette Master -> CD; Transfer Info: CD -> Adobe Audition v3.0 -> Samplitude Professional v11.2 -> FLAC; All Transfers and Mastering By Charlie Miller 
  Archive
Source Information - Download Text | Download Zip
Grateful Dead - December 28, 1979
Oakland Auditorium - Oakland, CA

Recording Info:
SBD -> Cassette Master -> CD

Transfer Info:
CD -> Adobe Audition v3.0 -> Samplitude Professional v11.2 -> FLAC
(2 Discs Audio / 1 DVD FLAC)

All Transfers and Mastering By Charlie Miller
[email protected]
December 7, 2011

Notes:
-- Disc change is seamless
-- Thanks to Joe B. Jones for his help with the pitch correction

Set 1:
d1t01 - Tuning
d1t02 - Sugaree
d1t03 - Mama Tried ->
d1t04 - Mexicali Blues
d1t05 - Row Jimmy
d1t06 - It's All Over Now
d1t07 - High Time
d1t08 - The Music Never Stopped

Set 2:
d1t09 - Tuning
d1t10 - Alabama Getaway ->
d1t11 - Greatest Story Ever Told
d2t01 - Terrapin Station ->
d2t02 - Playing In The Band ->
d2t03 - Drums ->
d2t04 - Space ->
d2t05 - Uncle John's Band ->
d2t06 - I Need A Miracle ->
d2t07 - Bertha ->
d2t08 - Good Lovin'

Encore:
d2t09 - Casey Jones
d2t10 - One More Saturday Night


SHNTOOL OUTPUT:
   length     expanded size   cdr  WAVE problems filename
    1:45.23       18576140    ---   --   -----   gd79-12-28d1t01.wav
   16:28.56      174414956    ---   --   -----   gd79-12-28d1t02.wav
    2:27.12       25959068    ---   --   -----   gd79-12-28d1t03.wav
    5:59.22       63379388    ---   --   -----   gd79-12-28d1t04.wav
   13:30.42      142982828    ---   --   -----   gd79-12-28d1t05.wav
    8:33.41       90589676    ---   --   -----   gd79-12-28d1t06.wav
    6:56.49       73497692    ---   --   -----   gd79-12-28d1t07.wav
    8:37.15       91234124    ---   --   -----   gd79-12-28d1t08.wav
    1:37.74       17284892    ---   --   -----   gd79-12-28d1t09.wav
    6:36.14       69887372    ---   --   -----   gd79-12-28d1t10.wav
    5:32.37       58651868    ---   --   -----   gd79-12-28d1t11.wav
   13:56.27      147533948    ---   --   -----   gd79-12-28d2t01.wav
   17:22.72      183978188    ---   --   -----   gd79-12-28d2t02.wav
    7:02.31       74513756    ---   --   -----   gd79-12-28d2t03.wav
    2:28.67       26264828    ---   --   -----   gd79-12-28d2t04.wav
    9:33.36      101161916    ---   --   -----   gd79-12-28d2t05.wav
    4:02.06       42702956    ---   --   -----   gd79-12-28d2t06.wav
    6:28.22       68494988    ---   --   -----   gd79-12-28d2t07.wav
    7:34.60       80226764    ---   --   -----   gd79-12-28d2t08.wav
    6:02.58       63993260    ---   --   -----   gd79-12-28d2t09.wav
    4:59.17       52783628    ---   --   -----   gd79-12-28d2t10.wav
  157:36.31     1668112236 B                     (totals for 21 files)


Show Checksums
ffp
gd79-12-28d1t01.flac:a93e169495d2beb7f869e2aa786a89e4
gd79-12-28d1t02.flac:eb818446d629f5f9e9f7a252b90adfd9
gd79-12-28d1t03.flac:d15f264581dc289bff73f2805be1c7cc
gd79-12-28d1t04.flac:51072a062e9f6d21c2884a46b4938216
gd79-12-28d1t05.flac:b6e2e3e92493f40ee01a54368c3638aa
gd79-12-28d1t06.flac:73aee418fbdcfa84a7f986fc067a60fd
gd79-12-28d1t07.flac:442f76347945e44071abb5fcde22e3e8
gd79-12-28d1t08.flac:b2248fb31bbbd15258e17f744d327433
gd79-12-28d1t09.flac:d89ce6bdb6c221518f8bba4ac3ba3549
gd79-12-28d1t10.flac:90ca89bccfc078705cf6161250061355
gd79-12-28d1t11.flac:9925b82417a4434cf0d05155a58688f8
gd79-12-28d2t01.flac:88b50e8ccf312806ed72c4d77eef0725
gd79-12-28d2t02.flac:52c20a658386ae578c8946891a0df460
gd79-12-28d2t03.flac:71e6266d05aba0b22fa0754150826f68
gd79-12-28d2t04.flac:1dfca1ced7ab7eea5d24c0f471f2988f
gd79-12-28d2t05.flac:ad24381ab25c273adbd74d8d18cbe752
gd79-12-28d2t06.flac:303be18e46073b987c7391ab3b5f4adf
gd79-12-28d2t07.flac:8a498f7148d25e3d211852419b1643b7
gd79-12-28d2t08.flac:ce290d9efd80cec303b2cfe8199d91ee
gd79-12-28d2t09.flac:b4f00420adca4671c07b7ff768cd482b
gd79-12-28d2t10.flac:3b9464d24368254bbaf1dfd3c4b29420
flac-md5
0c2f7e14bbe9075b08f86ab2454ba559 *gd79-12-28d1t01.flac
ebe052c430d6ff312fd74dc9b2294070 *gd79-12-28d1t02.flac
849927e254c759aadbe9d56904af7ace *gd79-12-28d1t03.flac
40da53b49d3e3e6b99507410073cfea0 *gd79-12-28d1t04.flac
fa1caa18175c0649e54545fb647352e4 *gd79-12-28d1t05.flac
9df99051dce8608b5fd18c3ace1d8860 *gd79-12-28d1t06.flac
fe8e0cda9eece7e0da0d8b1d72afa8e3 *gd79-12-28d1t07.flac
9b28b85918f3e2bec5d674b0cbcb562e *gd79-12-28d1t08.flac
94db7f231ab5a39690dcff402b344388 *gd79-12-28d1t09.flac
a59a55d634997602a94876f569016433 *gd79-12-28d1t10.flac
32c894e2386fe582bef1ddd215e626a9 *gd79-12-28d1t11.flac
bbd6165732d0c6f8ce6e778714f9bcf3 *gd79-12-28d2t01.flac
1e9fcbe8e39193c17ddf2bcf5e4ef2de *gd79-12-28d2t02.flac
5757fd646ed2d2b4d8ae1c6d1d5257b5 *gd79-12-28d2t03.flac
56759bce2127ef3aff8cbc453aa0fdb1 *gd79-12-28d2t04.flac
44664b0c9736648e2583190c943c208a *gd79-12-28d2t05.flac
0acd2db908f0e83130bd2a6a92910ae7 *gd79-12-28d2t06.flac
ce2c68224b55872befb35869c570f1c4 *gd79-12-28d2t07.flac
d455e39c4b64abfeda09fb75a72324ac *gd79-12-28d2t08.flac
42fb83883596d90a5e7f8ddbaefd63e0 *gd79-12-28d2t09.flac
1732bc68e2c49763a2f4c664ecf03179 *gd79-12-28d2t10.flac

Comments
Add Comment
Other Sources (comments)
SBD; transferred and seeded... (1) Recording by Steve Rolfe:... (0) sector boundary errors... (0) flac16; SBD > MR >... (1) flac16; Recording by... (0) flac16; Matrix by... (0) flac16;Recording... (0) flac16; Recorded By... (0) flac16; Recording... (0) flac16; Recording... (0)
Date User Comment