Browse Collections Artists Sources   Search Dates

Add Show    List Management    Help


Grateful Dead 07/02/81
The Summit, Houston, TX
Comments Add Comment    Source Collectors    Add to Collection    Add to Want List    History
Source # 134520 Other Sources
Entered by Matt Vernon
Checksums flac-md5 , ffp
Disc Counts 0 / 0
Media Size Compressed: 422.67 MB (443199488 bytes)
Uncompressed: 676.07 MB (708907396 bytes)
Date Circulated
Date Added
10/25/2015
10/25/2015
Source Summary flac16; Source: 1st Set AUD tape kindly provided by Jon Bernstein. Transfer: MAC > Nakamichi CR-5A > Edirol FA-66 > Wavelab 2448 > CD-Wave (24bit output) > R8Brain > TLH > FLAC 1644 tagged. Transferred by Andrew F. 10/2015 
  Archive
Source Information - Download Text | Download Zip
GRATEFUL DEAD
The Summit
Houston TX
07-02-1981
First Set

s1t01 Alabama Getaway >
s1t02 Greatest Story Ever Told
s1t03 Friend of the Devil >
s1t04 C.C. Rider
s1t05 Althea
s1t06 El Paso
s1t07 Jackaroe
s1t08 Looks Like Rain
s1t09 Dire Wolf
s1t10 Lost Sailor >
s1t11 Saint of Circumstance

Source: AUD tape kindly provided by Jon Bernstein.

Transfer: MAC > Nakamichi CR-5A > Edirol FA-66 > Wavelab 2448 >
CD-Wave (24bit output) > R8Brain > TLH > FLAC 1644 tagged.
Transferred by Andrew F. 10/2015

Note: Mic problem in FOTD, left channel mono from 6:00 to 7:29.
Beginning of El Paso and Looks Like Rain are slightly clipped.

    length     expanded size    cdr  WAVE problems  fmt   ratio  filename
     4:46.23       50504540 B   ---   --   ---xx   flac  0.6524  gd1981-07-02s1t01.flac
     4:02.30       42759404 B   ---   --   ---xx   flac  0.6481  gd1981-07-02s1t02.flac
     8:39.67       91709228 B   ---   --   ---xx   flac  0.5785  gd1981-07-02s1t03.flac
     7:34.25       80144444 B   ---   --   ---xx   flac  0.6397  gd1981-07-02s1t04.flac
     7:54.27       83677148 B   ---   --   ---xx   flac  0.6135  gd1981-07-02s1t05.flac
     4:49.12       51007868 B   ---   --   ---xx   flac  0.6232  gd1981-07-02s1t06.flac
     4:26.60       47063564 B   ---   --   ---xx   flac  0.6330  gd1981-07-02s1t07.flac
     8:28.06       89625356 B   ---   --   ---xx   flac  0.6224  gd1981-07-02s1t08.flac
     3:30.32       37119308 B   ---   --   ---xx   flac  0.6263  gd1981-07-02s1t09.flac
     6:16.51       66446396 B   ---   --   ---xx   flac  0.6247  gd1981-07-02s1t10.flac
     6:30.23       68850140 B   ---   --   ---xx   flac  0.6495  gd1981-07-02s1t11.flac
    66:58.56      708907396 B                            0.6251  (11 files)

No errors occured.



Show Checksums
flac-md5
63f8ac4231f5cee3d3d155d57eb040ac *gd1981-07-02s1t01.flac
3661a3c35adf41cf40c851180fc75f93 *gd1981-07-02s1t02.flac
885cefc3d4cb892d32603da9a9721d83 *gd1981-07-02s1t03.flac
b0ac461a35b16a6e125d0b5bfdac37d7 *gd1981-07-02s1t04.flac
3c2c0e7dd370c61cfe7daa6423093af7 *gd1981-07-02s1t05.flac
006ea6c1428dd6f1df7cc705f7f5064e *gd1981-07-02s1t06.flac
e030769a6bcde5d133ffe619f74de106 *gd1981-07-02s1t07.flac
6ab35fe4e6ae6c75f3a83d31391cfcdd *gd1981-07-02s1t08.flac
94b00f1bbc50c7f897faa9177a88ce19 *gd1981-07-02s1t09.flac
89d9cd7ad868477ee7513124dacd1cc6 *gd1981-07-02s1t10.flac
2c5b2b2b8d1d8f1121c8f50cb2ec28a9 *gd1981-07-02s1t11.flac
ffp
gd1981-07-02s1t01.flac:750fc41502abefe63d4cecb5bb815cb5
gd1981-07-02s1t02.flac:dfbff9c47b195c77d2a29c579fab32b9
gd1981-07-02s1t03.flac:3b76127f73e79ff9cbcda6d6b7daced1
gd1981-07-02s1t04.flac:5b6c86b7c07a22ec55b02096e88ffaf0
gd1981-07-02s1t05.flac:9118310669fd4cb509d69ece87591d17
gd1981-07-02s1t06.flac:2f44db2df3c3ff8a8a2e4f09ebb4e652
gd1981-07-02s1t07.flac:038a83446ee3b8b40d45e0aea6f86196
gd1981-07-02s1t08.flac:3ad60f6038b2c9f2e79af50c316b6083
gd1981-07-02s1t09.flac:653627632c14d5fe51b3e041be8d9428
gd1981-07-02s1t10.flac:5e7f4aee359476e9f465536de8ed5680
gd1981-07-02s1t11.flac:8546d70efbc6aa0034b84d179c13d52c

Comments
Add Comment
Other Sources (comments)
Senn 421's>MC>DAT>CD;... (0) flac16; 2nd Set AUD:... (0) flac24; 2nd Set AUD:... (0)
Date User Comment