Browse Collections Artists Sources   Search Dates

Add Show    List Management    Help


Grateful Dead 07/02/81
The Summit, Houston, TX
Comments Add Comment    Source Collectors    Add to Collection    Add to Want List    History
Source # 134521 Other Sources
Entered by Matt Vernon
Checksums flac-md5 , ffp
Disc Counts 0 / 0
Media Size Compressed: 606.36 MB (635809792 bytes)
Uncompressed: 970.52 MB (1017663976 bytes)
Date Circulated
Date Added
10/25/2015
10/25/2015
Source Summary flac16; 2nd Set AUD: Unknown Mics > lead deck > Sony TC-D5 > Hitachi ME Metal tape, FOB recording by Brian Schley. Transfer: MAC > Nakamichi CR-5A > Edirol FA-66 > Wavelab 2448 > CD-Wave (24bit output) > R8Brain > TLH > FLAC 1644 tagged. Transferred by Andrew F. 10/2015 
  Archive
Source Information - Download Text | Download Zip
GRATEFUL DEAD
The Summit
Houston TX
07-02-1981
Second Set

16bit/44.1kHz file-set

s2t01 crowd
s2t02 Scarlet Begonias >
s2t03 Fire on the Mountain
s2t04 Women are Smarter
s2t05 It Must Have Been the Roses
s2t06 Estimated Prophet >
s2t07 Eyes of the World >
xxxxx Drums (not recorded on master)
s2t08 Space >
s2t09 The Wheel >
s2t10 Truckin' >
s2t11 Black Peter >
s2t12 Around & Around >
s2t13 Good Lovin'
s2t14 Encore: U.S. Blues

AUD: Unknown Mics > lead deck > Sony TC-D5 > Hitachi ME Metal
tape, FOB recording by Brian Schley.

Transfer: MAC > Nakamichi CR-5A > Edirol FA-66 > Wavelab 2448 >
CD-Wave (24bit output) > R8Brain > TLH > FLAC 1644 tagged.
Transferred by Andrew F. 10/2015

Note: AUD tape kindly provided by Jon Bernstein provides patches
for tape flip in EOTW 6:55 > 7:19, and the complete encore track.
Thanks Jon Pasternak & Charlie McGuth for organizing this project!

    length     expanded size    cdr  WAVE problems  fmt   ratio  filename
     1:19.67       14093228 B   ---   --   ---xx   flac  0.5702  gd1981-07-02s2t01.flac
     7:16.12       76938668 B   ---   --   ---xx   flac  0.6382  gd1981-07-02s2t02.flac
     8:50.59       93630812 B   ---   --   ---xx   flac  0.6356  gd1981-07-02s2t03.flac
     5:53.07       62285708 B   ---   --   ---xx   flac  0.6428  gd1981-07-02s2t04.flac
     6:28.54       68570252 B   ---   --   ---xx   flac  0.6092  gd1981-07-02s2t05.flac
    10:28.06      110793356 B   ---   --   ---xx   flac  0.6240  gd1981-07-02s2t06.flac
     9:53.71      104772236 B   ---   --   ---xx   flac  0.6357  gd1981-07-02s2t07.flac
     4:51.05       51344204 B   ---   --   ---xx   flac  0.5557  gd1981-07-02s2t08.flac
     5:58.27       63214748 B   ---   --   ---xx   flac  0.6176  gd1981-07-02s2t09.flac
     9:54.01      104783996 B   ---   --   ---xx   flac  0.6336  gd1981-07-02s2t10.flac
     8:45.16       92647676 B   ---   --   ---xx   flac  0.6011  gd1981-07-02s2t11.flac
     3:46.61       40009916 B   ---   --   ---xx   flac  0.6265  gd1981-07-02s2t12.flac
     7:12.36       76289516 B   ---   --   ---xx   flac  0.6364  gd1981-07-02s2t13.flac
     5:30.33       58289660 B   ---   --   ---xx   flac  0.6572  gd1981-07-02s2t14.flac
    96:09.05     1017663976 B                            0.6247  (14 files)

No errors occured.



Show Checksums
flac-md5
528220feb0fcd167de38dda3735ca6c1 *gd1981-07-02s2t01.flac
5e751dcd5d6e297a27121426cd475b70 *gd1981-07-02s2t02.flac
35280aa6e8420ba65dca145a4750ccfd *gd1981-07-02s2t03.flac
5365112d955b7cc5b36c6e0dacc1b8c5 *gd1981-07-02s2t04.flac
6e8bec4efddbdecf077081eb54ed9cf1 *gd1981-07-02s2t05.flac
5276ec41ab32bba2e69ec467b8c90998 *gd1981-07-02s2t06.flac
83f935cd841b1bf3fdb3e5febca16bad *gd1981-07-02s2t07.flac
79c6ffe4a832661f8e08dd1ea162b608 *gd1981-07-02s2t08.flac
bdbb3adced70c14dd12fd8de3009581c *gd1981-07-02s2t09.flac
51757b8833c0ac9405776ad75655bb4b *gd1981-07-02s2t10.flac
be1fab214a0afe0495249cfbf3b5081b *gd1981-07-02s2t11.flac
0ae915b5ac2818b12f682a5a3c4e10d1 *gd1981-07-02s2t12.flac
2b9c36dd7a9421c2cc0dcfeef8bf5c4d *gd1981-07-02s2t13.flac
502658a70a12091ae8cd72b4865cfdce *gd1981-07-02s2t14.flac
ffp
gd1981-07-02s2t01.flac:3cc25228e4df5c75703aa0d53d3e9542
gd1981-07-02s2t02.flac:2e203c45c8fec7778abc60f6609a8c48
gd1981-07-02s2t03.flac:310b969de4ceba2f4b5f8dd2681431eb
gd1981-07-02s2t04.flac:84682feefb4f93bbfb929af73a600375
gd1981-07-02s2t05.flac:6328edae6140dc0b496bb47b0bb27995
gd1981-07-02s2t06.flac:0e74456ef749e015ee1ef3e07934362b
gd1981-07-02s2t07.flac:2a8e211994bd079a552ebf5dfcb151e7
gd1981-07-02s2t08.flac:58ee93ef01fb46f556ece2f937c2a306
gd1981-07-02s2t09.flac:5798d216f2befa046114a23e4f968657
gd1981-07-02s2t10.flac:8a2fd3c7a90cb0922c1d9cbef57f5b38
gd1981-07-02s2t11.flac:2596451b55e3dc486146f6392daa61ac
gd1981-07-02s2t12.flac:0cde9a3d854fafd7472c5ad88a3534bd
gd1981-07-02s2t13.flac:1b6ed8b857eafeef6c5ea1d0a32b7716
gd1981-07-02s2t14.flac:b798db67412d28a1d515aec09c3910d4

Comments
Add Comment
Other Sources (comments)
Senn 421's>MC>DAT>CD;... (0) flac16; Source: 1st... (0) flac24; 2nd Set AUD:... (0)
Date User Comment