Browse Collections Artists Sources   Search Dates

Add Show    List Management    Help


Grateful Dead 07/02/81
The Summit, Houston, TX
Comments Add Comment    Source Collectors    Add to Collection    Add to Want List    History
Source # 134522 Other Sources
Entered by Matt Vernon
Checksums flac-md5 , ffp
Disc Counts 0 / 0
Media Size Compressed: 1.15 GB (1234131942 bytes)
Uncompressed: 1.55 GB (1661490322 bytes)
Date Circulated
Date Added
10/25/2015
10/25/2015
Source Summary flac24; 2nd Set AUD: Unknown Mics > lead deck > Sony TC-D5 > Hitachi ME Metal tape, FOB recording by Brian Schley. Transfer: MAC > Nakamichi CR-5A > Edirol FA-66 > Wavelab 2448 > CD-Wave (24bit output) > TLH > FLAC 2448 tagged. Transferred by Andrew F. 10/2015 
  Archive
Source Information - Download Text | Download Zip
GRATEFUL DEAD
The Summit
Houston TX
07-02-1981
Second Set

24bit/48kHz file-set

s2t01 crowd
s2t02 Scarlet Begonias >
s2t03 Fire on the Mountain
s2t04 Women are Smarter
s2t05 It Must Have Been the Roses
s2t06 Estimated Prophet >
s2t07 Eyes of the World >
xxxxx Drums (not recorded on master)
s2t08 Space >
s2t09 The Wheel >
s2t10 Truckin' >
s2t11 Black Peter >
s2t12 Around & Around >
s2t13 Good Lovin'
s2t14 Encore: U.S. Blues

AUD: Unknown Mics > lead deck > Sony TC-D5 > Hitachi ME Metal
tape, FOB recording by Brian Schley.

Transfer: MAC > Nakamichi CR-5A > Edirol FA-66 > Wavelab 2448 >
CD-Wave (24bit output) > TLH > FLAC 2448 tagged. Transferred by
Andrew F. 10/2015

Note: AUD tape kindly provided by Jon Bernstein provides patches
for tape flip in EOTW 6:55 > 7:19, and the complete encore track.
Thanks Jon Pasternak & Charlie McGuth for organizing this project!

    length     expanded size    cdr  WAVE problems  fmt   ratio  filename
     1:19.893      23009324 B   cxx   --   ---xx   flac  0.7065  gd1981-07-02s2t01.flac
     7:16.160     125614124 B   cxx   --   ---xx   flac  0.7514  gd1981-07-02s2t02.flac
     8:50.787     152866604 B   cxx   --   ---xx   flac  0.7496  gd1981-07-02s2t03.flac
     5:53.093     101690924 B   cxx   --   ---xx   flac  0.7541  gd1981-07-02s2t04.flac
     6:28.720     111951404 B   cxx   --   ---xx   flac  0.7335  gd1981-07-02s2t05.flac
    10:28.080     180887084 B   cxx   --   ---xx   flac  0.7423  gd1981-07-02s2t06.flac
     9:53.957     171059750 B   cxx   --   ---xx   flac  0.7496  gd1981-07-02s2t07.flac
     4:51.067      83827244 B   cxx   --   ---xx   flac  0.7003  gd1981-07-02s2t08.flac
     5:58.360     103207724 B   cxx   --   ---xx   flac  0.7387  gd1981-07-02s2t09.flac
     9:54.013     171075884 B   cxx   --   ---xx   flac  0.7486  gd1981-07-02s2t10.flac
     8:45.213     151261484 B   cxx   --   ---xx   flac  0.7287  gd1981-07-02s2t11.flac
     3:46.813      65322284 B   cxx   --   ---xx   flac  0.7440  gd1981-07-02s2t12.flac
     7:12.480     124554284 B   cxx   --   ---xx   flac  0.7501  gd1981-07-02s2t13.flac
     5:30.424      95162204 B   cxx   --   ---xx   flac  0.7599  gd1981-07-02s2t14.flac
    96:09.061    1661490322 B                            0.7428  (14 files)

No errors occured.



Show Checksums
flac-md5
3f541ff9952618fe46f10a9a11ff7419 *gd1981-07-02s2t01.flac
8a1f9ca85411841bfe3e92b0eeb81785 *gd1981-07-02s2t02.flac
23d295f31753937b5977226f395e7d1e *gd1981-07-02s2t03.flac
32548af9c91d1581e35757fe171c905c *gd1981-07-02s2t04.flac
ec00d83f053a89cd7282ca0c59f8b297 *gd1981-07-02s2t05.flac
e28605f1a1904d9508eb8160153a52f9 *gd1981-07-02s2t06.flac
443ea2ea475d1d9c86534f3ae269424d *gd1981-07-02s2t07.flac
675ab6b0cfa6b57203086dd86e9c6d6c *gd1981-07-02s2t08.flac
44211ad9d92767e9cb315390737a4216 *gd1981-07-02s2t09.flac
67e138fc3086b78f94702fba037028da *gd1981-07-02s2t10.flac
690f4cdd971ca80c8708e39bfecff48b *gd1981-07-02s2t11.flac
542cff9d77d560aff7cd3cff9cc4806a *gd1981-07-02s2t12.flac
770a6dcfe4d1338cea73652ec8001a4f *gd1981-07-02s2t13.flac
f50b5209f32539ab669a9da7d880d67e *gd1981-07-02s2t14.flac
ffp
gd1981-07-02s2t01.flac:36dbb4d355386ef15b6caedebbf75b78
gd1981-07-02s2t02.flac:ea9143da177bd67d4dc37682b0c33a9a
gd1981-07-02s2t03.flac:eb3e3468576521136bd5c38a8d5d0988
gd1981-07-02s2t04.flac:e02f5631ef10fe8d5aff6da012f28bc7
gd1981-07-02s2t05.flac:148af15f22a7c9651c4f65819a6e7cca
gd1981-07-02s2t06.flac:e75e11b8ebb52cac0377bfb5ad82315f
gd1981-07-02s2t07.flac:63c4aad33109b94e02674dd8da97e1f6
gd1981-07-02s2t08.flac:086f552b87551cb620485f7b0cfb86f0
gd1981-07-02s2t09.flac:782517d78f372c5af867e5a338f7b9f9
gd1981-07-02s2t10.flac:90963d3d8b6877f1d7c46e89dc2d527f
gd1981-07-02s2t11.flac:9529625313597df318a3a3eb2b4e804e
gd1981-07-02s2t12.flac:3b461a06f68a7a4fe7dffeede1c04fd0
gd1981-07-02s2t13.flac:2acbc45860ca161aab686d522d6d1f10
gd1981-07-02s2t14.flac:121ba08887e838bab0827ed8f2d9ba3f

Comments
Add Comment
Other Sources (comments)
Senn 421's>MC>DAT>CD;... (0) flac16; Source: 1st... (0) flac16; 2nd Set AUD:... (0)
Date User Comment