Browse Collections Artists Sources   Search Dates

Add Show    List Management    Help


Grateful Dead 04/10/87
UIC Pavilion, Chicago, IL
Comments Add Comment    Source Collectors    Add to Collection    Add to Want List    History
Source # 134675 Other Sources
Entered by Matt Vernon
Checksums ffp , flac-md5
Disc Counts 0 / 0
Media Size Compressed: 827.55 MB (867750364 bytes)
Uncompressed: 1.37 GB (1470734748 bytes)
Date Circulated
Date Added
02/25/2008
11/19/2015
Source Summary flac16; Recording Info: SBD -> Cassette Master -> Cassette; Transfer Info: Cassette (Tascam 122mkII) -> Apogee MiniMe (24bit/48k) -> Samplitude Professional v8.01 -> FLAC/16; All Transfers and Mastering By Charlie Miller 
  Archive
Source Information - Download Text | Download Zip
Grateful Dead - April 10, 1987
UIC Pavilion - Chicago, IL
University of Illinois

Recording Info:
SBD -> Cassette Master -> Cassette

Transfer Info:
Cassette (Tascam 122mkII) -> Apogee MiniMe (24bit/48k) ->
Samplitude Professional v8.01 -> FLAC/16
(2 Discs Audio / 2 Discs FLAC)

All Transfers and Mastering By Charlie Miller
[email protected]
February 25, 2008

Notes:
-- Disc change is seamless
-- Thanks to Steve Marcus for the cassettes
-- This is a pretty hissy matrix sbd with lots of audience

Set 1:
d1t01 - Tuning
d1t02 - Shakedown Street
d1t03 - Little Red Rooster
d1t04 - Candyman
d1t05 - Me And My Uncle ->
d1t06 - Mexicali Blues
d1t07 - Brown Eyed Women
d1t08 - Cassidy ->
d1t09 - Don't Ease Me In

Set 2:
d1t10 - Tuning
d1t11 - Iko Iko
d1t12 - Looks Like Rain
d2t01 - Box Of Rain
d2t02 - He's Gone ->
d2t03 - Drums ->
d2t04 - Space ->
d2t05 - The Other One ->
d2t06 - Black Peter ->
d2t07 - Around And Around ->
d2t08 - Turn On Your Lovelight

Encore:
d2t09 - It's All Over Now, Baby Blue


SHNTOOL OUTPUT:
    length     expanded size   cdr  WAVE problems filename
     0:52.62        9318668    ---   --   -----   gd87-04-10d1t01.wav
    10:16.22      108714188    ---   --   -----   gd87-04-10d1t02.wav
     9:43.18      102883580    ---   --   -----   gd87-04-10d1t03.wav
     9:10.54       97147052    ---   --   -----   gd87-04-10d1t04.wav
     2:58.58       31535660    ---   --   -----   gd87-04-10d1t05.wav
     6:33.03       69332300    ---   --   -----   gd87-04-10d1t06.wav
     4:57.31       52463756    ---   --   -----   gd87-04-10d1t07.wav
     6:26.15       68125724    ---   --   -----   gd87-04-10d1t08.wav
     3:32.57       37530908    ---   --   -----   gd87-04-10d1t09.wav
     0:40.54        7183052    ---   --   -----   gd87-04-10d1t10.wav
     6:12.13       65651420    ---   --   -----   gd87-04-10d1t11.wav
     8:35.26       90907196    ---   --   -----   gd87-04-10d1t12.wav
     5:13.61       55356716    ---   --   -----   gd87-04-10d2t01.wav
    11:18.36      119683916    ---   --   -----   gd87-04-10d2t02.wav
    12:06.13      128097020    ---   --   -----   gd87-04-10d2t03.wav
     7:22.74       78142892    ---   --   -----   gd87-04-10d2t04.wav
     5:41.31       60225356    ---   --   -----   gd87-04-10d2t05.wav
     8:43.00       92257244    ---   --   -----   gd87-04-10d2t06.wav
     3:38.39       38546972    ---   --   -----   gd87-04-10d2t07.wav
     7:18.02       77267948    ---   --   -----   gd87-04-10d2t08.wav
     7:35.43       80363180    ---   --   -----   gd87-04-10d2t09.wav
   138:57.37     1470734748 B                     (totals for 21 files)


Show Checksums
ffp
gd87-04-10d1t01.flac:200ff603218d0f54df2428d2457555e3
gd87-04-10d1t02.flac:ca93ad6a2f304e2e77a20b627785a0bf
gd87-04-10d1t03.flac:26829f8cfe0ce14284e7c26b535bad09
gd87-04-10d1t04.flac:2361808d6d2cc53fc8ed82fc248e1b6e
gd87-04-10d1t05.flac:54712f3bb6b8ffc56429b6c770dddd3f
gd87-04-10d1t06.flac:0dc8592e932165e4fb09110cb4645efd
gd87-04-10d1t07.flac:6dd7b45237c786d04eeffe786e6eb2a1
gd87-04-10d1t08.flac:20cf3388fd3c2ef75bcdefd5af20eb11
gd87-04-10d1t09.flac:27c0fe44349e9e09111553ccaf444150
gd87-04-10d1t10.flac:bee7b2dca8a9b23871bf9c5b093d999d
gd87-04-10d1t11.flac:ee0930227bbf8d55a401932ab5dbc08b
gd87-04-10d1t12.flac:e2dded341a8b86406c1fd44b10510c25
gd87-04-10d2t01.flac:5a00dcd146d2fec9e63212dd1f85853f
gd87-04-10d2t02.flac:27697f7222facc5a89cae3038d32e87d
gd87-04-10d2t03.flac:99f0b747e497b05804acb0996c97ca75
gd87-04-10d2t04.flac:d863a6f84fac003f0fb067aad0eb8e67
gd87-04-10d2t05.flac:1aeb503b0d2d079fe6bfdb68551a181b
gd87-04-10d2t06.flac:a6360ddb99e71797237879abf240fcdc
gd87-04-10d2t07.flac:ddfb3291e0846350fb82bcc7efcb7e1c
gd87-04-10d2t08.flac:33e282192abfa11503ff4b38744c5c62
gd87-04-10d2t09.flac:bb3f42e8d2f7ca8fb41d4bd020692a14
flac-md5
0044dc704e3a8afd505c61b472bbb292 *gd87-04-10d1t01.flac
45838322fe626b996f3ba7f575548479 *gd87-04-10d1t02.flac
310494d824ffdb6a763bc24823a13a54 *gd87-04-10d1t03.flac
2d79a6764cee83dba01804020a2658e8 *gd87-04-10d1t04.flac
ee07e23f1e8922cf1b0335e5e1647ea7 *gd87-04-10d1t05.flac
2046d7c711b6468e4eab92815e589297 *gd87-04-10d1t06.flac
22064c2fdc01f84287534861623cc285 *gd87-04-10d1t07.flac
d89a99ac8fee0566d6780b110d01e38b *gd87-04-10d1t08.flac
102bafd5ea47d503c387bdc046ef7c0d *gd87-04-10d1t09.flac
71253bc28ac98930f4df132232dffe6b *gd87-04-10d1t10.flac
ccb9886741d2aa834c373f73621b84dd *gd87-04-10d1t11.flac
a3bb90ac0592b42aec25124843c3eb79 *gd87-04-10d1t12.flac
4a3a8ee59a11a1bb7a416a0d6317dc8b *gd87-04-10d2t01.flac
02d49ad136692ad724bb033a442329c8 *gd87-04-10d2t02.flac
c39f86bd51f4201ef8140ed20ba7722f *gd87-04-10d2t03.flac
bf7c8bf9cc9be59f7664ad316f61035d *gd87-04-10d2t04.flac
3794a7556516dca8f83992ac1e69505b *gd87-04-10d2t05.flac
534c6be6ba145f3dd05121534cdb9515 *gd87-04-10d2t06.flac
52906636d82ef306124eec6e8799d258 *gd87-04-10d2t07.flac
98e37ca138f5dfd7f3f0facf003b01be *gd87-04-10d2t08.flac
cab537714fe23b3a918293dcce25378f *gd87-04-10d2t09.flac

Comments
Add Comment
Other Sources (comments)
Schoeps CMC-441 Hyper... (0) Source: Audience Cassette... (1) flac16; OTS AUD:... (0) flac16; Source: SBD... (0) flac16; Recorded by... (1) flac16; Source: 2... (0) flac24; Recording... (0) flac16; Recording... (0)
Date User Comment