Browse Collections Artists Sources   Search Dates

Add Show    List Management    Help


Grateful Dead 11/29/80
Alligator Alley Gymnasium, U of Florida, Gainesville, FL
Comments Add Comment    Source Collectors    Add to Collection    Add to Want List    History
Source # 134703 Other Sources
Entered by Matt Vernon
Checksums ffp , flac-md5
Disc Counts 0 / 0
Media Size Compressed: 2.08 GB (2228383744 bytes)
Uncompressed: 2.86 GB (3067272856 bytes)
Date Circulated
Date Added
11/22/2015
11/22/2015
Source Summary flac24; AUD: Unknown mics > unknown lead deck > Sony TC-D5 > TDK-SA (1st Set) and Maxell XLII (2nd Set), recording by Brian Schley. Transfer: MAC > Nakamichi CR-5A > Edirol FA-66 > Wavelab 2448 > CD-Wave (24bit output) > TLH > FLAC 2448 tagged. Transferred by Andrew F. 11/2015 
  Archive
Source Information - Download Text | Download Zip
GRATEFUL DEAD
Alligator Alley Gymnasium
Gainesville FL
11-29-1980

24bit/48kHz file-set

s1t01 Alabama Getaway >
s1t02 Promised Land
s1t03 Candyman
s1t04 Minglewood Blues
s1t05 Row Jimmy
s1t06 Mama Tried >
s1t07 Mexicali Blues
s1t08 Althea >
s1t09 Lost Sailor >
s1t10 Saint of Circumstance >
s1t11 Don't Ease Me In

s2t01 crowd
s2t02 Shakedown Street >
s2t03 Franklin's Tower >
s2t04 Estimated Prophet >
s2t05 He's Gone >
s2t06 Truckin' >
s2t07 Drums >
s2t08 Space >
s2t09 The Other One >
s2t10 Stella Blue >
s2t11 Good Lovin'
s2t12 Encore: Casey Jones

AUD: Unknown mics > unknown lead deck > Sony TC-D5 > TDK-SA
(1st Set) and Maxell XLII (2nd Set), recording by Brian Schley.

Transfer: MAC > Nakamichi CR-5A > Edirol FA-66 > Wavelab 2448 >
CD-Wave (24bit output) > TLH > FLAC 2448 tagged. Transferred by
Andrew F. 11/2015

Note: This recording does not match any of the currently posted
versions. There were several issues with the 2nd Set tape; a big
drop-out (Estimated), mangled tape-flips (Truckin, Drums, & Good
Lovin) and the tape ran out on last note of the encore. These were
all patched with 24-bit segments taken from Jim Wise's ID-132457.
Thanks Jon Pasternak & Charlie McGuth for organizing this project!

    length     expanded size    cdr  WAVE problems  fmt   ratio  filename
     4:57.000      85536044 B   cxx   --   ---xx   flac  0.7376  gd1980-11-29s1t01.flac
     5:18.200      91641644 B   cxx   --   ---xx   flac  0.7332  gd1980-11-29s1t02.flac
     8:09.667     141024044 B   cxx   --   ---xx   flac  0.7108  gd1980-11-29s1t03.flac
     9:33.773     165246764 B   cxx   --   ---xx   flac  0.7223  gd1980-11-29s1t04.flac
    11:30.120     198754604 B   cxx   --   ---xx   flac  0.7169  gd1980-11-29s1t05.flac
     2:38.093      45530924 B   cxx   --   ---xx   flac  0.7364  gd1980-11-29s1t06.flac
     5:52.827     101614124 B   cxx   --   ---xx   flac  0.7299  gd1980-11-29s1t07.flac
     8:27.080     146039084 B   cxx   --   ---xx   flac  0.7215  gd1980-11-29s1t08.flac
     6:37.720     114543404 B   cxx   --   ---xx   flac  0.7212  gd1980-11-29s1t09.flac
     6:40.040     115211564 B   cxx   --   ---xx   flac  0.7401  gd1980-11-29s1t10.flac
     3:57.703      68458382 B   cxx   --   ---xx   flac  0.7400  gd1980-11-29s1t11.flac
     1:27.453      25186604 B   cxx   --   ---xx   flac  0.6833  gd1980-11-29s2t01.flac
    10:07.480     174954284 B   cxx   --   ---xx   flac  0.7394  gd1980-11-29s2t02.flac
     7:56.880     137341484 B   cxx   --   ---xx   flac  0.7447  gd1980-11-29s2t03.flac
    10:37.667     183648044 B   cxx   --   ---xx   flac  0.7342  gd1980-11-29s2t04.flac
    12:47.760     221114924 B   cxx   --   ---xx   flac  0.7200  gd1980-11-29s2t05.flac
     9:10.160     158446124 B   cxx   --   ---xx   flac  0.7505  gd1980-11-29s2t06.flac
    14:15.227     246305324 B   cxx   --   ---xx   flac  0.6931  gd1980-11-29s2t07.flac
     4:51.560      83969324 B   cxx   --   ---xx   flac  0.7137  gd1980-11-29s2t08.flac
     7:58.733     137875244 B   cxx   --   ---xx   flac  0.7355  gd1980-11-29s2t09.flac
    10:25.427     180122924 B   cxx   --   ---xx   flac  0.7107  gd1980-11-29s2t10.flac
     8:20.987     144284204 B   cxx   --   ---xx   flac  0.7486  gd1980-11-29s2t11.flac
     5:48.694     100423790 B   cxx   --   ---xx   flac  0.7417  gd1980-11-29s2t12.flac
   177:30.249    3067272856 B                            0.7265  (23 files)

No errors occured.



Show Checksums
ffp
gd1980-11-29s1t01.flac:33978159b34bfb7315cc10c174d9f259
gd1980-11-29s1t02.flac:502c8fd2b0872ea62691a5332e41c513
gd1980-11-29s1t03.flac:f56d6111b015ebbef014b8fe0964f628
gd1980-11-29s1t04.flac:bffe8fedeec52812a5095a98f1bd7e83
gd1980-11-29s1t05.flac:f3acc5c1b951d57a1ebba5e7dcf2a3be
gd1980-11-29s1t06.flac:5b4a372e564e42dc23ce358137f3706d
gd1980-11-29s1t07.flac:fb977ac0ead2813f1ba1f96ff3602989
gd1980-11-29s1t08.flac:112719b529bfc925c5430082ab3c840c
gd1980-11-29s1t09.flac:dd8ecfcdc901f6c6d291da622dcfe802
gd1980-11-29s1t10.flac:23f980a1f01b7b4cfea906c296b1c5f7
gd1980-11-29s1t11.flac:50838903f2d864803a94de0b7d1ece02
gd1980-11-29s2t01.flac:9b85edc2d4f6b6e8e555b2507de56e60
gd1980-11-29s2t02.flac:c5588ead0983165a617ff9a5ca9e89c8
gd1980-11-29s2t03.flac:8f67d3fbf03474956eb292dcd8b9c530
gd1980-11-29s2t04.flac:01c5a06d7ac1a2bd8ae5dca7bbaf531e
gd1980-11-29s2t05.flac:c6b07d79728608d4a95d913c38109369
gd1980-11-29s2t06.flac:24c899b4ed575dc631467d065cfbb67c
gd1980-11-29s2t07.flac:68fa2e78d38fec76d5c191b2820bd636
gd1980-11-29s2t08.flac:2e199ea0a0587e4229028ea9227f7bda
gd1980-11-29s2t09.flac:62134a947b21d03c3ff5e5cea45d6cc0
gd1980-11-29s2t10.flac:93ad0c539ea3af507371d289805326a6
gd1980-11-29s2t11.flac:13cb84c0b12e59f9cf8c6620cf0d64e9
gd1980-11-29s2t12.flac:09d30027f2404e2367d6198e06e68b8c
flac-md5
01ffe9959d16deee300ed4ade6b9391e *gd1980-11-29s1t01.flac
413e0045c8b154f9d036d790c5589d43 *gd1980-11-29s1t02.flac
c001108a7340c99a657185de9474aa79 *gd1980-11-29s1t03.flac
0509f46d3c93c761ea2534c1f51af8ad *gd1980-11-29s1t04.flac
61f929078f00f95a1a6e466a43f8719c *gd1980-11-29s1t05.flac
45a2ca02fd345e39546224254c1f3582 *gd1980-11-29s1t06.flac
bd98892eb27c850e2690d822b22b1bbe *gd1980-11-29s1t07.flac
8dd3712df61ee753928f6d0b61fc688a *gd1980-11-29s1t08.flac
c79129d45785267b248a9f01454388f9 *gd1980-11-29s1t09.flac
2fe0053a08897168b88fcca20aed7620 *gd1980-11-29s1t10.flac
2594f1c87155da2ac9de61592d617199 *gd1980-11-29s1t11.flac
9f70fa7fb7ffe7baf8509157079eb7f2 *gd1980-11-29s2t01.flac
b4152a41172902248d235c28156e790e *gd1980-11-29s2t02.flac
de7415f2d8c5f30880361a02522944ef *gd1980-11-29s2t03.flac
5d7f5bac970a6bf998a6c0a92208cf75 *gd1980-11-29s2t04.flac
758d55254c9f3e9595adafd478240104 *gd1980-11-29s2t05.flac
1f75ec113431ab5798006a120d48c76d *gd1980-11-29s2t06.flac
b4e316361c5449930e47a16635faefab *gd1980-11-29s2t07.flac
c868b7b0cf9451b46807f5bf6d08aec6 *gd1980-11-29s2t08.flac
efe7dc991789c34d83a0369d80f8e5fa *gd1980-11-29s2t09.flac
258702dfb9ecdf3e0f1cf20272d485f6 *gd1980-11-29s2t10.flac
e772cd69f195f06b4a5b49367ce06416 *gd1980-11-29s2t11.flac
8a2463b6326ed4cab139e1f7efeb3dd7 *gd1980-11-29s2t12.flac

Comments
Add Comment
Other Sources (comments)
no source info; via D. Barrick (2) Recording by Jim Wise: FOB... (3) flac16; Recording by... (1) flac16; Recording... (0) flac16; Recording... (0) flac24; Recorded... (0) flac16/48kHz;... (0) flac24; Cassette... (0) flac16; AUD: Unknown... (0) flac24; Set 2... (0) flac16; Set 2... (0)
Date User Comment