Browse Collections Artists Sources   Search Dates

Add Show    List Management    Help


Grateful Dead 11/29/80
Alligator Alley Gymnasium, U of Florida, Gainesville, FL
Comments Add Comment    Source Collectors    Add to Collection    Add to Want List    History
Source # 134704 Other Sources
Entered by Matt Vernon
Checksums flac-md5 , ffp
Disc Counts 0 / 0
Media Size Compressed: 1.05 GB (1122971648 bytes)
Uncompressed: 1.75 GB (1878708052 bytes)
Date Circulated
Date Added
11/22/2015
11/22/2015
Source Summary flac16; AUD: Unknown mics > unknown lead deck > Sony TC-D5 > TDK-SA (1st Set) and Maxell XLII (2nd Set), recording by Brian Schley. Transfer: MAC > Nakamichi CR-5A > Edirol FA-66 > Wavelab 2448 > CD-Wave (24bit output) > R8Brain > TLH > FLAC 1644 tagged. Transferred by Andrew F. 11/2015 
  Archive
Source Information - Download Text | Download Zip
GRATEFUL DEAD
Alligator Alley Gymnasium
Gainesville FL
11-29-1980

16bit/44.1kHz file-set

s1t01 Alabama Getaway >
s1t02 Promised Land
s1t03 Candyman
s1t04 Minglewood Blues
s1t05 Row Jimmy
s1t06 Mama Tried >
s1t07 Mexicali Blues
s1t08 Althea >
s1t09 Lost Sailor >
s1t10 Saint of Circumstance >
s1t11 Don't Ease Me In

s2t01 crowd
s2t02 Shakedown Street >
s2t03 Franklin's Tower >
s2t04 Estimated Prophet >
s2t05 He's Gone >
s2t06 Truckin' >
s2t07 Drums >
s2t08 Space >
s2t09 The Other One >
s2t10 Stella Blue >
s2t11 Good Lovin'
s2t12 Encore: Casey Jones

AUD: Unknown mics > unknown lead deck > Sony TC-D5 > TDK-SA
(1st Set) and Maxell XLII (2nd Set), recording by Brian Schley.

Transfer: MAC > Nakamichi CR-5A > Edirol FA-66 > Wavelab 2448 >
CD-Wave (24bit output) > R8Brain > TLH > FLAC 1644 tagged.
Transferred by Andrew F. 11/2015

Note: This recording does not match any of the currently posted
versions. There were several issues with the 2nd Set tape; a big
drop-out (Estimated), mangled tape-flips (Truckin, Drums, & Good
Lovin) and the tape ran out on last note of the encore. These were
all patched with 24-bit segments taken from Jim Wise's ID-132457.
Thanks Jon Pasternak & Charlie McGuth for organizing this project!

    length     expanded size    cdr  WAVE problems  fmt   ratio  filename
     4:57.00       52390844 B   ---   --   ---xx   flac  0.6180  gd1980-11-29s1t01.flac
     5:18.15       56130524 B   ---   --   ---xx   flac  0.6092  gd1980-11-29s1t02.flac
     8:09.50       86377244 B   ---   --   ---xx   flac  0.5724  gd1980-11-29s1t03.flac
     9:33.58      101213660 B   ---   --   ---xx   flac  0.5912  gd1980-11-29s1t04.flac
    11:30.09      121737212 B   ---   --   ---xx   flac  0.5823  gd1980-11-29s1t05.flac
     2:38.07       27887708 B   ---   --   ---xx   flac  0.6143  gd1980-11-29s1t06.flac
     5:52.62       62238668 B   ---   --   ---xx   flac  0.6047  gd1980-11-29s1t07.flac
     8:27.06       89448956 B   ---   --   ---xx   flac  0.5906  gd1980-11-29s1t08.flac
     6:37.54       70157852 B   ---   --   ---xx   flac  0.5899  gd1980-11-29s1t09.flac
     6:40.03       70567100 B   ---   --   ---xx   flac  0.6212  gd1980-11-29s1t10.flac
     3:57.53       41931500 B   ---   --   ---xx   flac  0.6219  gd1980-11-29s1t11.flac
     1:27.34       15426812 B   ---   --   ---xx   flac  0.5309  gd1980-11-29s2t01.flac
    10:07.36      107159516 B   ---   --   ---xx   flac  0.6175  gd1980-11-29s2t02.flac
     7:56.66       84121676 B   ---   --   ---xx   flac  0.6262  gd1980-11-29s2t03.flac
    10:37.50      112484444 B   ---   --   ---xx   flac  0.6091  gd1980-11-29s2t04.flac
    12:47.57      135432908 B   ---   --   ---xx   flac  0.5860  gd1980-11-29s2t05.flac
     9:10.12       97048268 B   ---   --   ---xx   flac  0.6363  gd1980-11-29s2t06.flac
    14:15.17      150862028 B   ---   --   ---xx   flac  0.5454  gd1980-11-29s2t07.flac
     4:51.42       51431228 B   ---   --   ---xx   flac  0.5761  gd1980-11-29s2t08.flac
     7:58.55       84448604 B   ---   --   ---xx   flac  0.6112  gd1980-11-29s2t09.flac
    10:25.32      110325308 B   ---   --   ---xx   flac  0.5706  gd1980-11-29s2t10.flac
     8:20.74       88374092 B   ---   --   ---xx   flac  0.6323  gd1980-11-29s2t11.flac
     5:48.53       61511900 B   ---   --   ---xx   flac  0.6223  gd1980-11-29s2t12.flac
   177:30.20     1878708052 B                            0.5977  (23 files)

No errors occured.



Show Checksums
flac-md5
133af6ce99f46eacd699277eb07507a2 *gd1980-11-29s1t01.flac
0e2c2a267463a7c42f2235fd98fb37e7 *gd1980-11-29s1t02.flac
2b106fbdbcc923bf99fcdf6e8ab9151d *gd1980-11-29s1t03.flac
60093e4d47e7843d369264c7201dd215 *gd1980-11-29s1t04.flac
94fec6a3c436087d7a285138941afeab *gd1980-11-29s1t05.flac
8794d1087b536c37953d28e96e0131e3 *gd1980-11-29s1t06.flac
9449091f815b07ec350ba8276d0f8183 *gd1980-11-29s1t07.flac
8d8d81ee285934d40e01a1c63d085f07 *gd1980-11-29s1t08.flac
5cab67ff47dba66733dc38435e2bed51 *gd1980-11-29s1t09.flac
1ff62299ebd915ff930d70cc2b3dda8b *gd1980-11-29s1t10.flac
b7f665379a1e09caf8c8cee5cbadc314 *gd1980-11-29s1t11.flac
50068845ff360618ece076d3ece7d527 *gd1980-11-29s2t01.flac
61a012d673b941dc0d3071c32e4a7868 *gd1980-11-29s2t02.flac
15ebdbc4657f3262e0457f4d209b6e14 *gd1980-11-29s2t03.flac
aea0092665147c868e5143bc3ce30ed4 *gd1980-11-29s2t04.flac
ef3f859544c2228b33b7905352ea6ca8 *gd1980-11-29s2t05.flac
8e0afeef2870516f9a3d38679f54ec5c *gd1980-11-29s2t06.flac
e1a9ec49a7fbde8bed3693cace45bc9c *gd1980-11-29s2t07.flac
4c3eca046b6ab9b31aaad245f9960d8a *gd1980-11-29s2t08.flac
c55434e9eb6fc976af7ca1b23c65958f *gd1980-11-29s2t09.flac
6e639e97c33040b87f71482b0f159da0 *gd1980-11-29s2t10.flac
78329b7689ae28db4ed6778f2b5cc8db *gd1980-11-29s2t11.flac
6ed9a4e9e64da497de773828f873c4e6 *gd1980-11-29s2t12.flac
ffp
gd1980-11-29s1t01.flac:453016263606f630c0c9972186d56f27
gd1980-11-29s1t02.flac:ca1dfff30dfedcb5cb964b55f436d25a
gd1980-11-29s1t03.flac:d4b3b2d20b2f6ea6ab8708dd644e3bae
gd1980-11-29s1t04.flac:de8aaa1167c03e638d2022798c6204a8
gd1980-11-29s1t05.flac:cce593268af0b4502b0b4ae005677e66
gd1980-11-29s1t06.flac:b350eb6a109abd2159d447a297726829
gd1980-11-29s1t07.flac:dde7cbd9790b96de63aabe130fe042c0
gd1980-11-29s1t08.flac:5f5ca2f417f9f5b0cbd9492797038831
gd1980-11-29s1t09.flac:3bb1330ed757e3fbb57955682eb9ea82
gd1980-11-29s1t10.flac:42af890e49e8cca5cfc9f33dc2c592b1
gd1980-11-29s1t11.flac:b99555cd55edeb6ebabf210343542733
gd1980-11-29s2t01.flac:abc09aec9991c9cf4feace4aae5f4600
gd1980-11-29s2t02.flac:09eeae504426ef3617d84e6f408ab097
gd1980-11-29s2t03.flac:0826f953bfe0f37acfc58666488bcb32
gd1980-11-29s2t04.flac:3998d2c1652b14d0a2d8f81ae5b9b62f
gd1980-11-29s2t05.flac:6d2499db8a64189a13849c25e58e8cb8
gd1980-11-29s2t06.flac:0df0e0fbe1ac834d9a729465379f6267
gd1980-11-29s2t07.flac:e7bfa98aa3e71a1d3a4aaa75b90ffa48
gd1980-11-29s2t08.flac:b7ece865928a45a5e0d7a8d0c670cde0
gd1980-11-29s2t09.flac:28b7fff395f4a0c2e55e0196cd6b5d26
gd1980-11-29s2t10.flac:a20d5fa4c3bd783ec84eb9778823e377
gd1980-11-29s2t11.flac:c68dd030fbf8eb0a219c2b211ef3cac0
gd1980-11-29s2t12.flac:15307cac3636e7075d4f3ea42c65b0c1

Comments
Add Comment
Other Sources (comments)
no source info; via D. Barrick (2) Recording by Jim Wise: FOB... (3) flac16; Recording by... (1) flac16; Recording... (0) flac16; Recording... (0) flac24; Recorded... (0) flac16/48kHz;... (0) flac24; Cassette... (0) flac24; AUD: Unknown... (0) flac24; Set 2... (0) flac16; Set 2... (0)
Date User Comment