Browse Collections Artists Sources   Search Dates

Add Show    List Management    Help


Grateful Dead 08/14/81
Seattle Center Coliseum, Seattle, WA
Comments Add Comment    Source Collectors    Add to Collection    Add to Want List    History
Source # 134817 Other Sources
Entered by Matt Vernon
Checksums flac-md5 , ffp
Disc Counts 0 / 0
Media Size Compressed: 569.85 MB (597528576 bytes)
Uncompressed: 937.62 MB (983164928 bytes)
Date Circulated
Date Added
12/12/2015
12/12/2015
Source Summary flac16; Set 2 AUD: Unknown mics > unknown lead deck > Sony TC-D5 > Maxell MX, FOB recording by Brian Schley. Transfer: MAC > Nakamichi CR-5A > Edirol FA-66 > Wavelab 2448 > R8Brain SRC > CD-Wave > TLH > FLAC 1644 tagged. Transferred by Andrew F. 12/2015 
  Archive
Source Information - Download Text | Download Zip
GRATEFUL DEAD
Seattle Center Coliseum
Seattle WA
08-14-1981
Second Set

s2t01 Might as Well >
s2t02 Samson & Delilah
s2t03 take a step back
s2t04 Ship of Fools
s2t05 Playin' in the Band >
s2t06 China Cat Sunflower >
s2t07 I Know You Rider >
s2t08 Jam >
s2t09 Drums >
s2t10 Space >
s2t11 Playin' in the Band Reprise >
s2t12 Wharf Rat >
s2t13 I Need a Miracle >
s2t14 Goin' Down the Road >
s2t15 Johnny B. Goode
s2t16 Encore: It's All Over Now Baby Blue

AUD: Unknown mics > unknown lead deck > Sony TC-D5 > Maxell MX,
FOB recording by Brian Schley.

Transfer: MAC > Nakamichi CR-5A > Edirol FA-66 > Wavelab 2448 >
R8Brain SRC > CD-Wave > TLH > FLAC 1644 tagged. Transferred by
Andrew F. 12/2015

Note: Patch from ID-91768, from Drums 2:59 to Space 0:16 (5:38).
Thanks Jon Pasternak & Charlie McGuth for organizing this project!

    length     expanded size    cdr  WAVE problems  fmt   ratio  filename
     4:15.22       45033788 B   ---   --   ---xx   flac  0.6390  gd1981-08-14s2t01.flac
     6:50.48       72436940 B   ---   --   ---xx   flac  0.6322  gd1981-08-14s2t02.flac
     1:20.16       14149676 B   ---   --   ---xx   flac  0.5662  gd1981-08-14s2t03.flac
     8:19.41       88120076 B   ---   --   ---xx   flac  0.5873  gd1981-08-14s2t04.flac
     9:31.61      100867916 B   ---   --   ---xx   flac  0.6190  gd1981-08-14s2t05.flac
     5:11.17       54900428 B   ---   --   ---xx   flac  0.6334  gd1981-08-14s2t06.flac
     4:44.02       50102348 B   ---   --   ---xx   flac  0.6259  gd1981-08-14s2t07.flac
     3:14.43       34322780 B   ---   --   ---xx   flac  0.6236  gd1981-08-14s2t08.flac
     8:20.32       88275308 B   ---   --   ---xx   flac  0.5523  gd1981-08-14s2t09.flac
     8:12.71       86955836 B   ---   --   ---xx   flac  0.5778  gd1981-08-14s2t10.flac
     2:54.61       30837116 B   ---   --   ---xx   flac  0.6186  gd1981-08-14s2t11.flac
     8:42.42       92179628 B   ---   --   ---xx   flac  0.6008  gd1981-08-14s2t12.flac
     3:28.26       36752396 B   ---   --   ---xx   flac  0.6382  gd1981-08-14s2t13.flac
     5:57.15       63010124 B   ---   --   ---xx   flac  0.6232  gd1981-08-14s2t14.flac
     4:36.18       48728780 B   ---   --   ---xx   flac  0.6295  gd1981-08-14s2t15.flac
     7:13.47       76491788 B   ---   --   ---xx   flac  0.6057  gd1981-08-14s2t16.flac
    92:53.37      983164928 B                            0.6077  (16 files)

No errors occured.


Show Checksums
flac-md5
0c3f0935a1ae1df9205d59fbda7ae6fe *gd1981-08-14s2t01.flac
fbaa36306d28a8309379e3ff82baf097 *gd1981-08-14s2t02.flac
ffd3c47b0214ff9b42a64c02158cf7cc *gd1981-08-14s2t03.flac
b49b04a08bec30bc8f6233caea40ab15 *gd1981-08-14s2t04.flac
84e5a9aed49b6d632a1ad9c0df74d2e4 *gd1981-08-14s2t05.flac
eb9b3ede81a59d7ea3bdb4e704c347df *gd1981-08-14s2t06.flac
f58299e50632bf1550de224fb0f65f28 *gd1981-08-14s2t07.flac
bb218463897ec9eb6f28d65225fe0259 *gd1981-08-14s2t08.flac
075de1e6071c4b0dc15fdac37eb903b3 *gd1981-08-14s2t09.flac
f22af0c0af3f4df97877d13dad5a77fb *gd1981-08-14s2t10.flac
15a797e0bd4d38ed4108ba71b3dac33f *gd1981-08-14s2t11.flac
31215ccb2fc1cadf5ba43956732cbb3d *gd1981-08-14s2t12.flac
00af922ccf2b1ecc23bc128747e68365 *gd1981-08-14s2t13.flac
26bebbb94004c1fe54f3414bd0f9a810 *gd1981-08-14s2t14.flac
776e491a09305c0437cb9cda8909e170 *gd1981-08-14s2t15.flac
b45642444c28764cdfe538df4c9c9a73 *gd1981-08-14s2t16.flac
ffp
gd1981-08-14s2t01.flac:536133714eeb448e57d80e442619fc9d
gd1981-08-14s2t02.flac:0dc701d4dccf4ad07a2f455ca09f6a82
gd1981-08-14s2t03.flac:504e8c98ddef839475918a71038acdf6
gd1981-08-14s2t04.flac:df852f62882ba8eb2ab5716df85c8e52
gd1981-08-14s2t05.flac:804457069e614e82bbc316b5a5939b71
gd1981-08-14s2t06.flac:da9affbe0aa98e7d9ac5bc8de2d46363
gd1981-08-14s2t07.flac:a404d211c646f7961e5e1223bca75e85
gd1981-08-14s2t08.flac:66d2a84c3a4551ed137e6e4521bfd6b7
gd1981-08-14s2t09.flac:551adc5b4fcba1e2c487c2896f40b07a
gd1981-08-14s2t10.flac:82c7ea0a9c3c6ca598b641c87d41ab20
gd1981-08-14s2t11.flac:fde49a3bcdd13d21ab0ee166c4e0dcd0
gd1981-08-14s2t12.flac:ff9d3008e119e26594c19826b2857708
gd1981-08-14s2t13.flac:561075003b3baf5e331d8ac68f0fd40e
gd1981-08-14s2t14.flac:4bd655c574769df5b01ff35570cbd9cd
gd1981-08-14s2t15.flac:bb0569b4618d40e65af7dbc5f5428408
gd1981-08-14s2t16.flac:96bd7def866f555b2c98c452aea65fc7

Comments
Add Comment
Other Sources (comments)
NAK 700's>Sony... (0) flac16; Recorded by... (0)
Date User Comment