Browse Collections Artists Sources   Search Dates

Add Show    List Management    Help


Grateful Dead 09/15/82
Capital Centre, Landover, MD
Comments Add Comment    Source Collectors    Add to Collection    Add to Want List    History
Source # 134869 Other Sources
Entered by Matt Vernon
Checksums flac-md5 , ffp
Disc Counts 0 / 0
Media Size Compressed: 1.67 GB (1788973056 bytes)
Uncompressed: 2.3 GB (2465717418 bytes)
Date Circulated
Date Added
12/26/2015
12/26/2015
Source Summary flac24; AUD: Nakamichi CM300/CP-4 shotguns > Sony TC-D5 > Maxell XLII. Set up inside SBD perimeter area for 1st Set, mics moved onto SBD platform for 2nd Set, recording by Brian Schley. Transfer: MAC > Nakamichi CR-5A > Edirol FA-66 > Wavelab 2448 > CD-Wave (24bit output) > TLH > FLAC 2448 tagged. Transferred by Andrew F. 12/2015 
  Archive
Source Information - Download Text | Download Zip
GRATEFUL DEAD
Capital Centre
Landover MD
1982-09-15

24bit/48kHz file-set

s1t01 Playin' in the Band >
s1t02 Crazy Fingers >
s1t03 PITB Jam #1 >
s1t04 Little Red Rooster
s1t05 Dupree's Diamond Blues >
s1t06 Beat it On Down the Line
s1t07 It Must Have Been the Roses >
s1t08 PITB Jam #2 >
s1t09 Let it Grow >
s1t10 Keep Your Day Job

s2t01 Shakedown Street >
s2t02 PITB Jam #2 >
s2t03 Lost Sailor >
s2t04 Saint of Circumstance >
s2t05 Drums//
s2t06 Space >
s2t07 Not Fade Away >
s2t08 Stella Blue >
s2t09 Around & Around >
s2t10 Good Lovin'
s2t11 Encore: Touch of Grey

AUD: Nakamichi CM300/CP-4 shotguns > Sony TC-D5 > Maxell XLII.
Set up inside SBD perimeter area for 1st Set, mics moved onto
SBD platform for 2nd Set, recording by Brian Schley.

Transfer: MAC > Nakamichi CR-5A > Edirol FA-66 > Wavelab 2448 >
CD-Wave (24bit output) > TLH > FLAC 2448 tagged. Transferred by
Andrew F. 12/2015

Notes: ID-81690 patch PITB Jam #2 0:03 > 0:12. ID-118451 patches;
BIODTL 0:00 > 0:06, Sailor 1:03 > 1:04, Drums 2:14 to end of track.
Thanks Jon Pasternak & Charlie McGuth for organizing this project!

    length     expanded size    cdr  WAVE problems  fmt   ratio  filename
     8:42.907     150597164 B   cxx   --   ---xx   flac  0.7335  gd1982-09-15s1t01.flac
     9:25.107     162750764 B   cxx   --   ---xx   flac  0.7273  gd1982-09-15s1t02.flac
     1:34.613      27248684 B   cxx   --   ---xx   flac  0.6947  gd1982-09-15s1t03.flac
     8:12.093     141722924 B   cxx   --   ---xx   flac  0.7239  gd1982-09-15s1t04.flac
     6:07.467     105830444 B   cxx   --   ---xx   flac  0.7319  gd1982-09-15s1t05.flac
     3:27.973      59896364 B   cxx   --   ---xx   flac  0.7398  gd1982-09-15s1t06.flac
     5:14.947      90704684 B   cxx   --   ---xx   flac  0.7223  gd1982-09-15s1t07.flac
     2:48.973      48664364 B   cxx   --   ---xx   flac  0.7332  gd1982-09-15s1t08.flac
    11:10.387     193071404 B   cxx   --   ---xx   flac  0.7393  gd1982-09-15s1t09.flac
     4:59.500      86256044 B   cxx   --   ---xx   flac  0.7421  gd1982-09-15s1t10.flac
    12:39.680     218787884 B   cxx   --   ---xx   flac  0.7385  gd1982-09-15s2t01.flac
     2:31.720      43695404 B   cxx   --   ---xx   flac  0.6936  gd1982-09-15s2t02.flac
     7:04.200     122169644 B   cxx   --   ---xx   flac  0.7101  gd1982-09-15s2t03.flac
     7:44.453     133762604 B   cxx   --   ---xx   flac  0.7328  gd1982-09-15s2t04.flac
     6:26.907     111429164 B   cxx   --   ---xx   flac  0.6906  gd1982-09-15s2t05.flac
     3:36.707      62411564 B   cxx   --   ---xx   flac  0.6494  gd1982-09-15s2t06.flac
    13:23.000     231264044 B   cxx   --   ---xx   flac  0.7223  gd1982-09-15s2t07.flac
     8:28.320     146396204 B   cxx   --   ---xx   flac  0.7007  gd1982-09-15s2t08.flac
     3:56.147      68010284 B   cxx   --   ---xx   flac  0.7298  gd1982-09-15s2t09.flac
     8:05.400     139795244 B   cxx   --   ---xx   flac  0.7337  gd1982-09-15s2t10.flac
     7:01.016     121252538 B   cxx   --   ---xx   flac  0.7643  gd1982-09-15s2t11.flac
   142:41.516    2465717418 B                            0.7254  (21 files)

No errors occured.



Show Checksums
flac-md5
ffec1b3a01abec62b45a81e5eddcacf5 *gd1982-09-15s1t01.flac
1a74b6479df49b56d6b65ab608f2fea7 *gd1982-09-15s1t02.flac
373edd888585e061ccc0d361c54a8343 *gd1982-09-15s1t03.flac
18efe49fdebc83874839e48d890f8da6 *gd1982-09-15s1t04.flac
19e7fbfd81cda7aa84e783ceef6d66ab *gd1982-09-15s1t05.flac
4f4df59da955a99104206e862216bffe *gd1982-09-15s1t06.flac
e12680e58abe5f697ca0b53f94a0e044 *gd1982-09-15s1t07.flac
623a513534cea134cf8a82450011a1b9 *gd1982-09-15s1t08.flac
0a2a50c0f47e4227671a428542197cc2 *gd1982-09-15s1t09.flac
ed6c6d487fed0c504ae13583ce33a779 *gd1982-09-15s1t10.flac
7c5d36b56c5d376c4f5e1d01760741a4 *gd1982-09-15s2t01.flac
e7625c6920bfc5143835fdfd07bde6d4 *gd1982-09-15s2t02.flac
769188ab5652907d200110293104427e *gd1982-09-15s2t03.flac
0f281b5bf160c0be7638221d17b48a30 *gd1982-09-15s2t04.flac
6cbe61256ca6ed0db63ca3093da5df7d *gd1982-09-15s2t05.flac
3d36b4a30be5090fa0d2f737b859c30e *gd1982-09-15s2t06.flac
459c996ecdbab830dbe2f799d0cc53c6 *gd1982-09-15s2t07.flac
da1ed1497b6c439b17d925f29b657a05 *gd1982-09-15s2t08.flac
a4a23489f22347a0b06d032051378637 *gd1982-09-15s2t09.flac
152af5ecb7e217d75f19d9c4a3657fa2 *gd1982-09-15s2t10.flac
75eb6f01f02f34430bc493ef814af7f5 *gd1982-09-15s2t11.flac
ffp
gd1982-09-15s1t01.flac:eb83d560591ff06129d4240f45ca527a
gd1982-09-15s1t02.flac:391226145b188ab1acd5d445c69bae20
gd1982-09-15s1t03.flac:681d1f2a874be67d61f9dfb88adde790
gd1982-09-15s1t04.flac:bf619c1a598a58f01c28122f3c937295
gd1982-09-15s1t05.flac:96af56ea96b411c9665a3b76e704b2c2
gd1982-09-15s1t06.flac:45349f2e9a464a46e4338e741390fbdb
gd1982-09-15s1t07.flac:2c9b71e72a99da495435f8905f9fbc0b
gd1982-09-15s1t08.flac:c60ba3f48dc749d4c307935adbb51465
gd1982-09-15s1t09.flac:d9f137a341ec9ac8daf103200401ba58
gd1982-09-15s1t10.flac:8cbd0a320de50da8d74fd729311b4420
gd1982-09-15s2t01.flac:fff1ae23c072cb579512cb7e3bc9d327
gd1982-09-15s2t02.flac:60ea0e56c4df5f030a0bf008da465d49
gd1982-09-15s2t03.flac:4b91caa5de47af6bf75df09614a621b7
gd1982-09-15s2t04.flac:61ac11d2e4bf6afe114dd8720c216cae
gd1982-09-15s2t05.flac:6944d93c6f68d6c923974bd36aca8700
gd1982-09-15s2t06.flac:63c77c70a0567744fbfee7fa952c4e33
gd1982-09-15s2t07.flac:8d2c67127805800fb89ce23853605924
gd1982-09-15s2t08.flac:d792b60d252ce255be9d4dd7eaac3afb
gd1982-09-15s2t09.flac:04e862b564a68c559a5b4a02916481a9
gd1982-09-15s2t10.flac:58ce16b7b4bbb84bc9963036754aa442
gd1982-09-15s2t11.flac:3c066feb3d8488dbd6af4edaaf7e2273

Comments
Add Comment
Other Sources (comments)
combination SBD (Jim Wise)... (3) Master Sondboard Cassette >... (0) flac16; Recording by... (1) flac16; Recording... (0) flac24; Recording... (0) flac16; Recording... (0) flac16; AUD:... (0)
Date User Comment