Browse Collections Artists Sources   Search Dates

Add Show    List Management    Help


Grateful Dead 09/15/82
Capital Centre, Landover, MD
Comments Add Comment    Source Collectors    Add to Collection    Add to Want List    History
Source # 134870 Other Sources
Entered by Matt Vernon
Checksums ffp , flac-md5
Disc Counts 0 / 0
Media Size Compressed: 867.49 MB (909631488 bytes)
Uncompressed: 1.41 GB (1510255404 bytes)
Date Circulated
Date Added
12/26/2015
12/26/2015
Source Summary flac16; AUD: Nakamichi CM300/CP-4 shotguns > Sony TC-D5 > Maxell XLII. Set up inside SBD perimeter area for 1st Set, mics moved onto SBD platform for 2nd Set, recording by Brian Schley. Transfer: MAC > Nakamichi CR-5A > Edirol FA-66 > Wavelab 2448 > CD-Wave (24bit output) > R8Brain > TLH > FLAC 1644 tagged. Transferred by Andrew F. 12/2015 
  Archive
Source Information - Download Text | Download Zip
GRATEFUL DEAD
Capital Centre
Landover MD
1982-09-15

16bit/44.1kHz file-set

s1t01 Playin' in the Band >
s1t02 Crazy Fingers >
s1t03 PITB Jam #1 >
s1t04 Little Red Rooster
s1t05 Dupree's Diamond Blues >
s1t06 Beat it On Down the Line
s1t07 It Must Have Been the Roses >
s1t08 PITB Jam #2 >
s1t09 Let it Grow >
s1t10 Keep Your Day Job

s2t01 Shakedown Street >
s2t02 PITB Jam #2 >
s2t03 Lost Sailor >
s2t04 Saint of Circumstance >
s2t05 Drums//
s2t06 Space >
s2t07 Not Fade Away >
s2t08 Stella Blue >
s2t09 Around & Around >
s2t10 Good Lovin'
s2t11 Encore: Touch of Grey

AUD: Nakamichi CM300/CP-4 shotguns > Sony TC-D5 > Maxell XLII.
Set up inside SBD perimeter area for 1st Set, mics moved onto
SBD platform for 2nd Set, recording by Brian Schley.

Transfer: MAC > Nakamichi CR-5A > Edirol FA-66 > Wavelab 2448 >
CD-Wave (24bit output) > R8Brain > TLH > FLAC 1644 tagged.
Transferred by Andrew F. 12/2015

Notes: ID-81690 patch PITB Jam #2 0:03 > 0:12. ID-118451 patches;
BIODTL 0:00 > 0:06, Sailor 1:03 > 1:04, Drums 2:14 to end of track.
Thanks Jon Pasternak & Charlie McGuth for organizing this project!

    length     expanded size    cdr  WAVE problems  fmt   ratio  filename
     8:42.68       92240780 B   ---   --   ---xx   flac  0.6154  gd1982-09-15s1t01.flac
     9:25.08       99684860 B   ---   --   ---xx   flac  0.6052  gd1982-09-15s1t02.flac
     1:34.46       16689836 B   ---   --   ---xx   flac  0.5536  gd1982-09-15s1t03.flac
     8:12.07       86805308 B   ---   --   ---xx   flac  0.5993  gd1982-09-15s1t04.flac
     6:07.35       64821164 B   ---   --   ---xx   flac  0.6116  gd1982-09-15s1t05.flac
     3:27.73       36686540 B   ---   --   ---xx   flac  0.6245  gd1982-09-15s1t06.flac
     5:14.71       55556636 B   ---   --   ---xx   flac  0.5965  gd1982-09-15s1t07.flac
     2:48.73       29806940 B   ---   --   ---xx   flac  0.6145  gd1982-09-15s1t08.flac
    11:10.29      118256252 B   ---   --   ---xx   flac  0.6243  gd1982-09-15s1t09.flac
     4:59.38       52833020 B   ---   --   ---xx   flac  0.6295  gd1982-09-15s1t10.flac
    12:39.51      134007596 B   ---   --   ---xx   flac  0.6232  gd1982-09-15s2t01.flac
     2:31.54       26763452 B   ---   --   ---xx   flac  0.5513  gd1982-09-15s2t02.flac
     7:04.15       74828924 B   ---   --   ---xx   flac  0.5780  gd1982-09-15s2t03.flac
     7:44.34       81929612 B   ---   --   ---xx   flac  0.6141  gd1982-09-15s2t04.flac
     6:26.68       68250380 B   ---   --   ---xx   flac  0.5496  gd1982-09-15s2t05.flac
     3:36.53       38227100 B   ---   --   ---xx   flac  0.4804  gd1982-09-15s2t06.flac
    13:23.00      141649244 B   ---   --   ---xx   flac  0.5973  gd1982-09-15s2t07.flac
     8:28.24       89667692 B   ---   --   ---xx   flac  0.5626  gd1982-09-15s2t08.flac
     3:56.11       41656316 B   ---   --   ---xx   flac  0.6090  gd1982-09-15s2t09.flac
     8:05.30       85624604 B   ---   --   ---xx   flac  0.6149  gd1982-09-15s2t10.flac
     7:01.02       74269148 B   ---   --   ---xx   flac  0.6615  gd1982-09-15s2t11.flac
   142:41.40     1510255404 B                            0.6021  (21 files)

No errors occured.



Show Checksums
ffp
gd1982-09-15s1t01.flac:7fcc7d72c5a58e4f794d66d14312119e
gd1982-09-15s1t02.flac:e600ef1cbb406d8166f63be78bb217b5
gd1982-09-15s1t03.flac:dcdc9f381917c94483bc87d5e49ac5c6
gd1982-09-15s1t04.flac:16bf84c57994738ff61dddd73bc4b5c2
gd1982-09-15s1t05.flac:9b7fbfa1c4c5070ef19e8e94a3257d89
gd1982-09-15s1t06.flac:e88ed36698f679df44ddfc838604edd0
gd1982-09-15s1t07.flac:d630a6e29d9f6dbf01c46bc52510d3fe
gd1982-09-15s1t08.flac:5900934b4d4a08daa4b0e8e5ad8ddec4
gd1982-09-15s1t09.flac:43fb7995d534760a75a885d78d45e291
gd1982-09-15s1t10.flac:17fed9bc27c1e79e3ea94618ddeaab02
gd1982-09-15s2t01.flac:59ba7be14d5e32eaaa0998939ff5e483
gd1982-09-15s2t02.flac:f0a41ac030b1783268ab8d00e6e34a26
gd1982-09-15s2t03.flac:1d9d7c7af75ccc8bb5f05e3dfa172af3
gd1982-09-15s2t04.flac:d0f154f8ece585785cd5ba230b96ff37
gd1982-09-15s2t05.flac:fc8da19852b32e3ec6e2352c56bc24c9
gd1982-09-15s2t06.flac:ac6e3129118def610e9f67c28f80646b
gd1982-09-15s2t07.flac:795e014d75ee5bfad1dd4a3bfcded08d
gd1982-09-15s2t08.flac:0d2b5daf2ab6cfc59898d8b083eb179c
gd1982-09-15s2t09.flac:ba7d204edd041b4f6002ccf5cbe547ba
gd1982-09-15s2t10.flac:0ce4b78115ba872916865a73b1909f8f
gd1982-09-15s2t11.flac:d75fd2cd1867390b8e27b7e7dcad0ffc
flac-md5
a529bdbf45581ecb905bc3ddde6016b1 *gd1982-09-15s1t01.flac
91aca0418e0a8178f94e1aafbe756656 *gd1982-09-15s1t02.flac
5e17fac0719877535621e48c91c4efad *gd1982-09-15s1t03.flac
eb7ae8e1d4e28044e005e25ccb18f079 *gd1982-09-15s1t04.flac
b0c00ae3663c0a089955ab0d02a8ba71 *gd1982-09-15s1t05.flac
e7b4260fae1efb5019482da9d6800cb1 *gd1982-09-15s1t06.flac
0d02312f2f758bc9eb8bf0c258edd9d3 *gd1982-09-15s1t07.flac
164a3a8b1f391255c8cc5994e8b65e6e *gd1982-09-15s1t08.flac
d3aeb36e052ac1a4b29a40bcc935867a *gd1982-09-15s1t09.flac
d5842e20c538a9dcb4a1c07221c7117b *gd1982-09-15s1t10.flac
f1cf6653d60aafbb6091454a9d95de91 *gd1982-09-15s2t01.flac
d97ef9079b70db543071fbc6f4fcd3a8 *gd1982-09-15s2t02.flac
4d659dcad312b344c8d9a0d68596d78a *gd1982-09-15s2t03.flac
c7ac7f023dcc0a60288a8fc322586b06 *gd1982-09-15s2t04.flac
61f91fe66d50fc7707399cde7ad046fb *gd1982-09-15s2t05.flac
9b0e21abd4c6b761edeccb06cc3d2ff8 *gd1982-09-15s2t06.flac
d6b5d05d066790e5cd184f8d5085f41a *gd1982-09-15s2t07.flac
bb78933dbf879d58261cf8e1ee04d38e *gd1982-09-15s2t08.flac
f21fbedd4d3857187f2ab089eb8082c6 *gd1982-09-15s2t09.flac
4cd1578b28b1abf01cb310824603af41 *gd1982-09-15s2t10.flac
a314c1211455d6d79674d43cb9377fee *gd1982-09-15s2t11.flac

Comments
Add Comment
Other Sources (comments)
combination SBD (Jim Wise)... (3) Master Sondboard Cassette >... (0) flac16; Recording by... (1) flac16; Recording... (0) flac24; Recording... (0) flac16; Recording... (0) flac24; AUD:... (0)
Date User Comment