Browse Collections Artists Sources   Search Dates

Add Show    List Management    Help


Grateful Dead 04/12/83
Broome County Arena, Binghamton, NY
Comments Add Comment    Source Collectors    Add to Collection    Add to Want List    History
Source # 134998 Other Sources
Entered by Matt Vernon
Checksums ffp , flac-md5
Disc Counts 0 / 0
Media Size Compressed: 1.06 GB (1133006848 bytes)
Uncompressed: 1.73 GB (1857337736 bytes)
Date Circulated
Date Added
01/12/2016
01/12/2016
Source Summary flac16; AUD: Nakamichi CM300/CP4 shotguns > Sony TC-D5 > Fuji Metal (S1) and TDK MA-Metal (S2). Set up FOB, recording by Brian Schley. Transfer: MAC > Nakamichi CR-5A > Edirol FA-66 > Wavelab 2448 > R8Brain SRC > Wavelab (adding 16-bit patches) > CD-Wave > TLH > FLAC 1644 tagged. Transferred by Andrew F. 01/2016 
  Archive
Source Information - Download Text | Download Zip
GRATEFUL DEAD
Broome County Arena
Binghamton NY
04-12-1983

s1t01 Alabama Getaway >
s1t02 Greatest Story Ever Told
s1t03 Birdsong
s1t04 Minglewood Blues
s1t05 Peggy-O
s1t06 Cassidy
s1t07 Loser
s1t08 It's All Over Now
s1t09 Dupree's Diamond Blues
s1t10 Let it Grow

s2t01 Help on the Way > Slipknot >
s2t02 Franklin's Tower
s2t03 Lost Sailor >
s2t04 Saint of Circumstance
s2t05 Terrapin >
s2t06 Drums >
s2t07 Space >
s2t08 The Other One >
s2t09 Wharf Rat >
s2t10 Not Fade Away
s2t11 crowd chant > NFA Reprise >
s2t12 Encore: It's All Over Now Baby Blue

AUD: Nakamichi CM300/CP4 shotguns > Sony TC-D5 > Fuji Metal (S1)
and TDK MA-Metal (S2). Set up FOB, recording by Brian Schley.

Transfer: MAC > Nakamichi CR-5A > Edirol FA-66 > Wavelab 2448 >
R8Brain SRC > Wavelab (adding 16-bit patches) > CD-Wave > TLH >
FLAC 1644 tagged. Transferred by Andrew F. 01/2016

Note: Master tapes suffering from wear and tear, with fluttering
in spots, and minor damage audible in Alabama and Terrapin. Patches
from AUD sources were added to second set to make it seamless; tape
flip in Terrapin, all of Drums, and tape flip after Not Fade Away.
Thanks Jon Pasternak & Charlie McGuth for organizing this project!

    length     expanded size    cdr  WAVE problems  fmt   ratio  filename
     4:54.27       51925148 B   ---   --   ---xx   flac  0.6869  gd1983-04-12s1t01.flac
     4:05.72       43387388 B   ---   --   ---xx   flac  0.6623  gd1983-04-12s1t02.flac
     7:52.21       83310236 B   ---   --   ---xx   flac  0.6312  gd1983-04-12s1t03.flac
     8:24.53       89030300 B   ---   --   ---xx   flac  0.6533  gd1983-04-12s1t04.flac
     6:50.53       72448700 B   ---   --   ---xx   flac  0.6041  gd1983-04-12s1t05.flac
     5:47.62       61356668 B   ---   --   ---xx   flac  0.6646  gd1983-04-12s1t06.flac
     7:21.54       77919452 B   ---   --   ---xx   flac  0.6319  gd1983-04-12s1t07.flac
     8:37.36       91283516 B   ---   --   ---xx   flac  0.6857  gd1983-04-12s1t08.flac
     5:09.55       54637004 B   ---   --   ---xx   flac  0.6545  gd1983-04-12s1t09.flac
    12:18.48      130296140 B   ---   --   ---xx   flac  0.6768  gd1983-04-12s1t10.flac
    11:32.19      122113532 B   ---   --   ---xx   flac  0.6208  gd1983-04-12s2t01.flac
    11:50.54      125371052 B   ---   --   ---xx   flac  0.6210  gd1983-04-12s2t02.flac
     7:20.73       77787740 B   ---   --   ---xx   flac  0.5574  gd1983-04-12s2t03.flac
     7:51.50       83202044 B   ---   --   ---xx   flac  0.5990  gd1983-04-12s2t04.flac
    11:16.61      119389916 B   ---   --   ---xx   flac  0.5772  gd1983-04-12s2t05.flac
     7:32.22       79784588 B   ---   --   ---xx   flac  0.5721  gd1983-04-12s2t06.flac
     9:59.04      105673052 B   ---   --   ---xx   flac  0.4712  gd1983-04-12s2t07.flac
     9:22.25       99195644 B   ---   --   ---xx   flac  0.5919  gd1983-04-12s2t08.flac
     8:54.20       94244684 B   ---   --   ---xx   flac  0.5639  gd1983-04-12s2t09.flac
     7:34.00       80085644 B   ---   --   ---xx   flac  0.5864  gd1983-04-12s2t10.flac
     2:47.00       29458844 B   ---   --   ---xx   flac  0.5177  gd1983-04-12s2t11.flac
     8:04.25       85436444 B   ---   --   ---xx   flac  0.6103  gd1983-04-12s2t12.flac
   175:29.09     1857337736 B                            0.6100  (22 files)

No errors occured.



Show Checksums
ffp
gd1983-04-12s1t01.flac:3ae13976c10441e2d3d4ade240ca1741
gd1983-04-12s1t02.flac:27f34d8037623245bd0438835d019bb9
gd1983-04-12s1t03.flac:301faf18275532ca429191e3f2f59177
gd1983-04-12s1t04.flac:a08edbfe287591a4af0251f7352fa45f
gd1983-04-12s1t05.flac:30e03afb7f50ff2834976a7c69898086
gd1983-04-12s1t06.flac:ce53eec0c3ede9b0d1ac13198466746c
gd1983-04-12s1t07.flac:84125637125e8e673092c7baf1229a3d
gd1983-04-12s1t08.flac:6450bfc03271bcd6f4356855ab06c657
gd1983-04-12s1t09.flac:4bf67679e3e452bf96485fbca498967f
gd1983-04-12s1t10.flac:6ab9fb6bc1b70dea22e0b5fbf7319a16
gd1983-04-12s2t01.flac:00b129f4c5fa9684c84528c3a90aca19
gd1983-04-12s2t02.flac:3d6c349dca1541e5539fe527719ecee1
gd1983-04-12s2t03.flac:db71279851ddd805bbf372e9f5373712
gd1983-04-12s2t04.flac:a359568d2cc9ab2399986a5c8b016b2b
gd1983-04-12s2t05.flac:b4746c1a60eaf8c05d251b2c143cdfc2
gd1983-04-12s2t06.flac:792a9e3419682db73b8bf07032d44ead
gd1983-04-12s2t07.flac:b85c905f9384afa4c240584a81f1bb92
gd1983-04-12s2t08.flac:5531eb90436820fa70542de32a540f44
gd1983-04-12s2t09.flac:80a8407caf862155939f8ca1573e309c
gd1983-04-12s2t10.flac:bb206a6b8fc8eab8d26654501d01ba9b
gd1983-04-12s2t11.flac:64007912bb407f4cd034b119b7d76884
gd1983-04-12s2t12.flac:91276e4148e465ab255f066f839f75d6
flac-md5
63125c2aec2d2050324beb8642b2ce94 *gd1983-04-12s1t01.flac
01a5aff48f2d2b70402db0faf06e32c9 *gd1983-04-12s1t02.flac
5de37feae2643b05e5fd47ffe91a30b9 *gd1983-04-12s1t03.flac
d712c39cac3d0dc8d21952de2c26308b *gd1983-04-12s1t04.flac
43ef4d724f199e138281bdf964225481 *gd1983-04-12s1t05.flac
89cc78724ec3420c05c91934e523ebea *gd1983-04-12s1t06.flac
2c22e53a19d09084ba18b4858257846e *gd1983-04-12s1t07.flac
531a24166ec9e4eec023bba313c87541 *gd1983-04-12s1t08.flac
9a431936dbc96cc3a3ade8728c9ee5ba *gd1983-04-12s1t09.flac
b25b82ed6541287bcf330c128ad5d3cd *gd1983-04-12s1t10.flac
0dce8eb30d088fbd4b4e218c8c08a8c3 *gd1983-04-12s2t01.flac
0cba46720b219912e6037a7112f03503 *gd1983-04-12s2t02.flac
06462645027bc3c32cac384b65fa3c79 *gd1983-04-12s2t03.flac
a0b9487a9b9002299f8a6766a280399e *gd1983-04-12s2t04.flac
8c9b7fa0b38253be35a95faf10df5f70 *gd1983-04-12s2t05.flac
a4d73ac8399621dce0e7bb7504d17e0a *gd1983-04-12s2t06.flac
cf88bdb6d9d798a00d432a8a37b1fe8e *gd1983-04-12s2t07.flac
18ebd71f693aeccbfb6dc7a3d1f3c353 *gd1983-04-12s2t08.flac
facfc4a642dcfb1ac6477403ed2ee5c7 *gd1983-04-12s2t09.flac
e523c355eced5f919c3b8282cec243be *gd1983-04-12s2t10.flac
eb7d22277995082279921e87e0082574 *gd1983-04-12s2t11.flac
a6ff8e43c3aaf9f3ec3c473418ce2dc2 *gd1983-04-12s2t12.flac

Comments
Add Comment
Other Sources (comments)
2nd set only;... (1) Jim Wise recording, FOB... (0) SBD>PCM>DAT>CDR; with aud... (1) Primary source: SBD >... (2) flac16; Recording... (0) flac16; MAC; (FOB) 2... (2) flac24; nakamichi... (0) flac16; 3 Source... (0) flac16; nakamichi... (0) flac16/48kHz;... (1) flac16; Set 2... (0) flac16; aud cassette... (0) flac24; aud cassette... (0) flac16/44.1 ... (0) flac24/48 ... (0)
Date User Comment