Browse Collections Artists Sources   Search Dates

Add Show    List Management    Help


Grateful Dead 07/05/81
Zoo Amphitheater, Oklahoma City, OK
Comments Add Comment    Source Collectors    Add to Collection    Add to Want List    History
Source # 135205 Other Sources
Entered by Matt Vernon
Checksums flac-md5 , ffp
Disc Counts 0 / 0
Media Size Compressed: 1.2 GB (1292484608 bytes)
Uncompressed: 1.63 GB (1754631436 bytes)
Date Circulated
Date Added
02/14/2016
02/14/2016
Source Summary flac24; 2nd Set Aud: Nakamichi Cm300/cp4 Shotguns > Unknown Lead Deck > Sony Tc-d5m > Hitachi Me-metal, Fob Recording By Brian Schley. Transfer: Mac > Nakamichi Cr-5a > Edirol Fa-66 > Wavelab 2448 > Cd-wave (24bit Output) > Tlh > Flac 2448 Tagged. Transferred By Andrew F. 02/2016 
  Archive
Source Information - Download Text | Download Zip
GRATEFUL DEAD
Zoo Amphitheater
Oklahoma City OK
07-05-1981
Second Set

24bit/48kHz file-set

s2t01 Samson & Delilah
s2t02 Don't Ease Me In >
s2t03 Music Never Stopped
s2t04 Ship of Fools
s2t05 Lost Sailor >
s2t06 Saint of Circumstance >
s2t07 He's Gone >
s2t08 Drums >
s2t09 Space >
s2t10 The Other One >
s2t11 Stella Blue >
s2t12 Around & Around >
s2t13 Johnny B. Goode
s2t14 Encore: U.S. Blues

AUD: Nakamichi CM300/CP4 shotguns > unknown lead deck > Sony
TC-D5M > Hitachi ME-Metal, FOB recording by Brian Schley.

Transfer: MAC > Nakamichi CR-5A > Edirol FA-66 > Wavelab 2448 >
CD-Wave (24bit output) > TLH > FLAC 2448 tagged. Transferred by
Andrew F. 02/2016

Note: Start of Samson and Sailor slightly clipped. Patches from
ID-132363, He's Gone 4:16 > 4:21, and He's Gone 12:20 > Space 0:19.
Thanks Jon Pasternak & Charlie McGuth for organizing this project!

    length     expanded size    cdr  WAVE problems  fmt   ratio  filename
     7:39.387     132303404 B   cxx   --   ---xx   flac  0.7601  gd1981-07-05s2t01.flac
     3:36.733      62419244 B   cxx   --   ---xx   flac  0.7614  gd1981-07-05s2t02.flac
     9:05.853     157205804 B   cxx   --   ---xx   flac  0.7552  gd1981-07-05s2t03.flac
     8:27.240     146085164 B   cxx   --   ---xx   flac  0.7299  gd1981-07-05s2t04.flac
     7:06.973     122968364 B   cxx   --   ---xx   flac  0.7356  gd1981-07-05s2t05.flac
     7:02.893     121793324 B   cxx   --   ---xx   flac  0.7577  gd1981-07-05s2t06.flac
    12:51.400     222163244 B   cxx   --   ---xx   flac  0.7272  gd1981-07-05s2t07.flac
    10:52.293     187860524 B   cxx   --   ---xx   flac  0.7234  gd1981-07-05s2t08.flac
     3:02.013      52419884 B   cxx   --   ---xx   flac  0.6854  gd1981-07-05s2t09.flac
     8:29.667     146784044 B   cxx   --   ---xx   flac  0.7354  gd1981-07-05s2t10.flac
    10:05.813     174474284 B   cxx   --   ---xx   flac  0.7168  gd1981-07-05s2t11.flac
     3:57.253      68329004 B   cxx   --   ---xx   flac  0.7374  gd1981-07-05s2t12.flac
     4:01.907      69669164 B   cxx   --   ---xx   flac  0.7514  gd1981-07-05s2t13.flac
     5:13.041      90155984 B   cxx   --   ---xx   flac  0.7447  gd1981-07-05s2t14.flac
   101:32.468    1754631436 B                            0.7366  (14 files)

No errors occured.



Show Checksums
flac-md5
d227891ac710713647e36aae95f43db6 *gd1981-07-05s2t01.flac
7a305d2b5949c5b3aabde02a0b4f3cbe *gd1981-07-05s2t02.flac
108b65bc83ccaa8ace01e91e78dc7f7e *gd1981-07-05s2t03.flac
d3086f6b2fb3059855e61b0a1dab88c6 *gd1981-07-05s2t04.flac
14730fa5ca18bc46b00e108628c1d4a5 *gd1981-07-05s2t05.flac
afcf8323fbee19a7757d9af5c6793ff9 *gd1981-07-05s2t06.flac
281c070bc3952eec6c4ea67f8018fd88 *gd1981-07-05s2t07.flac
cd1bb228db80776912d5d7bdb3a9f306 *gd1981-07-05s2t08.flac
8b867a5ced042ad4d677206441a01cfb *gd1981-07-05s2t09.flac
11af829deef001c2b21fa176c64afed1 *gd1981-07-05s2t10.flac
9cf469b820baecfb719a89671c2096e7 *gd1981-07-05s2t11.flac
e4abd509d50885319dceffda51a71a3f *gd1981-07-05s2t12.flac
39aac43560186f49d95adbbab06b1fc2 *gd1981-07-05s2t13.flac
5b73b5fda1b4fe0639fd41dec159f77a *gd1981-07-05s2t14.flac
ffp
gd1981-07-05s2t01.flac:f5953ce99c7a6aa4ed38eddcdc59fee8
gd1981-07-05s2t02.flac:3f46246cc3adf9da3619249ba0d5f690
gd1981-07-05s2t03.flac:41aef9e088599babbd85c4d40afa6738
gd1981-07-05s2t04.flac:b00baa60d4cf6cf105bc9284d86b6f90
gd1981-07-05s2t05.flac:21ee36914570ecd5fecaa5961e4e7686
gd1981-07-05s2t06.flac:1833d30f44ea20fc5b81507f4541fdd8
gd1981-07-05s2t07.flac:d33d9f2e4ff3f5fc37a896173e1f61f3
gd1981-07-05s2t08.flac:087c3cdde3148db12b8a482505de283b
gd1981-07-05s2t09.flac:28e67b6f47aa2ad18d501bf6f4ac30f9
gd1981-07-05s2t10.flac:55751e7aaf010a5ee44ffa7cf9de1ccc
gd1981-07-05s2t11.flac:f348aa67c6bcacb752f3cf77ff5e2b29
gd1981-07-05s2t12.flac:38a7129d4814e9fbe80aa6105b260af6
gd1981-07-05s2t13.flac:bab4b0c410c29835b576d5ce020f2d48
gd1981-07-05s2t14.flac:e013ab939aec643169323675812b721b

Comments
Add Comment
Other Sources (comments)
Nak CM700?s> Sony D-5> MC>... (2) flac16; SBD ->... (0) flac16; Recording... (2) flac16; Set 2 only,... (0) flac16/48kHz;... (2) flac16; 2nd Set AUD:... (0)
Date User Comment