Browse Collections Artists Sources   Search Dates

Add Show    List Management    Help


Grateful Dead 07/05/81
Zoo Amphitheater, Oklahoma City, OK
Comments Add Comment    Source Collectors    Add to Collection    Add to Want List    History
Source # 135206 Other Sources
Entered by Matt Vernon
Checksums ffp , flac-md5
Disc Counts 0 / 0
Media Size Compressed: 631.52 MB (662200320 bytes)
Uncompressed: 1 GB (1074714088 bytes)
Date Circulated
Date Added
02/14/2016
02/14/2016
Source Summary flac16; 2nd Set AUD: Nakamichi CM300/CP4 shotguns > unknown lead deck > Sony TC-D5M > Hitachi ME-Metal, FOB recording by Brian Schley. Transfer: MAC > Nakamichi CR-5A > Edirol FA-66 > Wavelab 2448 > CD-Wave (24bit output) > R8Brain > TLH > FLAC 1644 tagged. Transferred by Andrew F. 02/2016 
  Archive
Source Information - Download Text | Download Zip
GRATEFUL DEAD
Zoo Amphitheater
Oklahoma City OK
07-05-1981
Second Set

16bit/44.1kHz file-set

s2t01 Samson & Delilah
s2t02 Don't Ease Me In >
s2t03 Music Never Stopped
s2t04 Ship of Fools
s2t05 Lost Sailor >
s2t06 Saint of Circumstance >
s2t07 He's Gone >
s2t08 Drums >
s2t09 Space >
s2t10 The Other One >
s2t11 Stella Blue >
s2t12 Around & Around >
s2t13 Johnny B. Goode
s2t14 Encore: U.S. Blues

AUD: Nakamichi CM300/CP4 shotguns > unknown lead deck > Sony
TC-D5M > Hitachi ME-Metal, FOB recording by Brian Schley.

Transfer: MAC > Nakamichi CR-5A > Edirol FA-66 > Wavelab 2448 >
CD-Wave (24bit output) > R8Brain > TLH > FLAC 1644 tagged.
Transferred by Andrew F. 02/2016

Note: Start of Samson and Sailor slightly clipped. Patches from
ID-132363, He's Gone 4:16 > 4:21, and He's Gone 12:20 > Space 0:19.
Thanks Jon Pasternak & Charlie McGuth for organizing this project!

    length     expanded size    cdr  WAVE problems  fmt   ratio  filename
     7:39.29       81035852 B   ---   --   ---xx   flac  0.6522  gd1981-07-05s2t01.flac
     3:36.55       38231804 B   ---   --   ---xx   flac  0.6528  gd1981-07-05s2t02.flac
     9:05.64       96288572 B   ---   --   ---xx   flac  0.6445  gd1981-07-05s2t03.flac
     8:27.18       89477180 B   ---   --   ---xx   flac  0.6034  gd1981-07-05s2t04.flac
     7:06.73       75318140 B   ---   --   ---xx   flac  0.6127  gd1981-07-05s2t05.flac
     7:02.67       74598428 B   ---   --   ---xx   flac  0.6489  gd1981-07-05s2t06.flac
    12:51.30      136075004 B   ---   --   ---xx   flac  0.5997  gd1981-07-05s2t07.flac
    10:52.22      115064588 B   ---   --   ---xx   flac  0.6067  gd1981-07-05s2t08.flac
     3:02.01       32107196 B   ---   --   ---xx   flac  0.5330  gd1981-07-05s2t09.flac
     8:29.50       89905244 B   ---   --   ---xx   flac  0.6132  gd1981-07-05s2t10.flac
    10:05.61      106865516 B   ---   --   ---xx   flac  0.5826  gd1981-07-05s2t11.flac
     3:57.19       41851532 B   ---   --   ---xx   flac  0.6161  gd1981-07-05s2t12.flac
     4:01.68       42672380 B   ---   --   ---xx   flac  0.6392  gd1981-07-05s2t13.flac
     5:13.04       55222652 B   ---   --   ---xx   flac  0.6297  gd1981-07-05s2t14.flac
   101:32.36     1074714088 B                            0.6161  (14 files)

No errors occured.



Show Checksums
ffp
gd1981-07-05s2t01.flac:e28eedb3bc0eb3f730c57bdd1aee776b
gd1981-07-05s2t02.flac:d11a679f9b6ba8ee97a61dad10a6b412
gd1981-07-05s2t03.flac:416e2842eb10c3f561d39b96e9fb7575
gd1981-07-05s2t04.flac:62f04c866161004943f837b3ea2eff12
gd1981-07-05s2t05.flac:f828fc7c7f52b0d8ff10a29628631c5c
gd1981-07-05s2t06.flac:f71cbc74931774201cfea4478a0a6579
gd1981-07-05s2t07.flac:aec4310d1fc1223d8259957b174bc533
gd1981-07-05s2t08.flac:5d7651fbae784edc3603a60f4b0c7105
gd1981-07-05s2t09.flac:6c558a72fe7394810d404d1e0260a324
gd1981-07-05s2t10.flac:1115232427dd2aa07e356e822a705558
gd1981-07-05s2t11.flac:06b301e50300649cf73941c01b271ede
gd1981-07-05s2t12.flac:b4e7590f1f19899c13cd2f3a257c6e94
gd1981-07-05s2t13.flac:841ca6196e035415dd4bef4910d0eb6e
gd1981-07-05s2t14.flac:e5457934c8a915067240885bb44cc4c7
flac-md5
54337e22d84b4c609e35d6eb4cc7262c *gd1981-07-05s2t01.flac
956fc0499287f5bb10f4d303ba30593a *gd1981-07-05s2t02.flac
9acd68cce263679ed9a9a257b5f4435b *gd1981-07-05s2t03.flac
24b78b9c8c64453616de2d466fd10904 *gd1981-07-05s2t04.flac
294352dae444c065cd176beaa2705ce9 *gd1981-07-05s2t05.flac
bd6404b4bc6e8638220415488c7dfd17 *gd1981-07-05s2t06.flac
1fc2c00f04023d8bce9a55d19315609a *gd1981-07-05s2t07.flac
731a64b029fead30327354091f92b8fb *gd1981-07-05s2t08.flac
b11f2ede1c4d17b9f88f0caebb4800f4 *gd1981-07-05s2t09.flac
12147a6013aead68934bab7e515185af *gd1981-07-05s2t10.flac
58872bf17a0820fd458ea11d9bf75dc8 *gd1981-07-05s2t11.flac
7529b8eb5b5582484b34a679747419cf *gd1981-07-05s2t12.flac
d2c9b09847971473a4eb144dc9b2dc10 *gd1981-07-05s2t13.flac
c17e653641641f5721049bb0d4e62229 *gd1981-07-05s2t14.flac

Comments
Add Comment
Other Sources (comments)
Nak CM700?s> Sony D-5> MC>... (2) flac16; SBD ->... (0) flac16; Recording... (2) flac16; Set 2 only,... (0) flac16/48kHz;... (2) flac24; 2nd Set Aud:... (0)
Date User Comment