Browse Collections Artists Sources   Search Dates

Add Show    List Management    Help


Grateful Dead 03/16/93
Capital Centre, Landover, MD
Comments Add Comment    Source Collectors    Add to Collection    Add to Want List    History
Source # 135258 Other Sources
Entered by Matt Vernon
Checksums ffp , flac-md5
Disc Counts 0 / 0
Media Size Compressed: 1.42 GB (1520435200 bytes)
Uncompressed: 1.51 GB (1623635740 bytes)
Date Circulated
Date Added
02/22/2016
02/22/2016
Source Summary DTS-Audio-CD 5.1 Mix; SBD (shnid=120741) Recording Info: SBD -> Master Dat (44.1k); Transfer Info: Master Dat (Tascam DA-20) -> Tascam SS-R05 -> Samplitude Professional v11.1 -> FLAC; All Transfers and Mastering By Charlie Miller + AUD (shnid 85173) AKG 460/CK8's -> Panasonic SV-255 -> (clone) TEAC DA-P20 -> Tascam DA-30 (48k) --[coaxial S/PDIF]--> Diamond xTreme Sound Card (48k) - dts mixing by Kevin Tobin 
  Archive
Source Information - Download Text | Download Zip
Grateful Dead
Capital Centre,
Landover, MD
March 16, 1993

DTS-Audio-CD 5.1 Mix

Set 1:
d1t01 - Jack Straw
d1t02 - Row Jimmy
d1t03 - New Minglewood Blues
d1t04 - So Many Roads
d1t05 - Cassidy
d1t06 - Tennessee Jed ->
d1t07 - Promised Land

Set 2:
d2t01 - Scarlet Begonias ->
d2t02 - Fire On The Mountain
d2t03 - Man Smart (Woman Smarter)
d2t04 - Uncle John's Band ->
d2t05 - Drums ->
d3t01 - Space ->
d3t02 - The Last Time ->
d3t03 - Morning Dew ->
d3t04 - Sugar Magnolia

Encore:
d3t05 - U.S. Blues

Audio Information:
Original SBD (shnid=120741)

Recording Info:
SBD -> Master Dat (44.1k)

Transfer Info:
Master Dat (Tascam DA-20) -> Tascam SS-R05 -> Samplitude Professional v11.1 -> FLAC
(3 Discs Audio / 1 DVD FLAC)

All Transfers and Mastering By Charlie Miller
[email protected]
June 15, 2012

Notes:
-- Set 2 is seamless

Original AUD (shnid=85173)

Lineage:
AKG 460/CK8's -> Panasonic SV-255 -> (clone) TEAC DA-P20
Transfer:
Tascam DA-30 (48k) --[coaxial S/PDIF]--> Diamond xTreme Sound Card (48k)
48k->44.1 in Cool Edit Pro, tracked with CDWave, FLAC level 8 encoded

Taper(s): Scott Swayne, Roger Jones, and Joe
Transfer: Scott Swayne (altheasboy) in 05/07
---------------------------------------------------------
- Mixed by [email protected]
- FLAC conversion 22-FEB-2016 - Trader Little Helper
- Tagged 22-FEB-2016 - Tag&Rename
---------------------------------------------------------
Front
Left Channel  0db SBD
Right Channel 0db SBD

Center
Mixed to mono -1db SBD

Surround
Left Channel -2db AUD
Right Channel -2db AUD

Sub/LFE
Mixed to mono -1db SBD
---------------------------------------------------------
More On DTS

Today's audio standards are moving towards multi-channel
sound, like DTS and Dolby Digital. While the Audio-CD
standard (Red Book) hasn't changed to accommodate these
new sound formats, it is still possible to go around the
specification and to put a 5.1 surround recording on a
regular Audio-CD. To play a DTS-Audio-CD you must connect
your DVD/CD player via a digital cable (optical or coaxial)
to your DTS Dolby-Digital receiver. It is not 100% sure
that your receiver will recognize a DTS-Audio CD, so the
first time you're trying to playback a DTS-Audio-CD you
must do a test to determine if it can. Begin with the
volume very low, start the disc and raise the volume
gradually. NEVER listen to a DTS-Audio-CD through the
analog audio outputs of your CD/DVD player.

Burning Instructions

Burn them the absolute same way as you would burn any
normal Audio-CD from FLAC files.

Brokedown House Production

    length     expanded size    cdr  WAVE problems  fmt   ratio  filename
     7:21.71       77959436 B   ---   --   -----    wav  1.0000  gd1993-03-16t1d01.wav
    10:33.49      111776492 B   ---   --   -----    wav  1.0000  gd1993-03-16t1d02.wav
     8:25.02       89086748 B   ---   --   -----    wav  1.0000  gd1993-03-16t1d03.wav
     8:03.17       85241228 B   ---   --   -----    wav  1.0000  gd1993-03-16t1d04.wav
     7:58.65       84472124 B   ---   --   -----    wav  1.0000  gd1993-03-16t1d05.wav
     7:49.45       82837484 B   ---   --   -----    wav  1.0000  gd1993-03-16t1d06.wav
     4:31.60       47945564 B   ---   --   -----    wav  1.0000  gd1993-03-16t1d07.wav
     8:30.32       90039308 B   ---   --   -----    wav  1.0000  gd1993-03-16t2d01.wav
    13:01.43      137869580 B   ---   --   -----    wav  1.0000  gd1993-03-16t2d02.wav
     8:25.34       89162012 B   ---   --   -----    wav  1.0000  gd1993-03-16t2d03.wav
    13:54.19      147162332 B   ---   --   -----    wav  1.0000  gd1993-03-16t2d04.wav
     9:40.19      102356732 B   ---   --   -----    wav  1.0000  gd1993-03-16t2d05.wav
     9:39.30      102206204 B   ---   --   -----    wav  1.0000  gd1993-03-16t3d01.wav
     6:37.39       70122572 B   ---   --   -----    wav  1.0000  gd1993-03-16t3d02.wav
    11:29.65      121692524 B   ---   --   -----    wav  1.0000  gd1993-03-16t3d03.wav
    12:01.17      127224428 B   ---   --   -----    wav  1.0000  gd1993-03-16t3d04.wav
     5:20.14       56480972 B   ---   --   -----    wav  1.0000  gd1993-03-16t3d05.wav
   153:24.21     1623635740 B                            1.0000  (17 files)




Show Checksums
ffp
gd1993-03-16t1d01.flac:4baa7be19e9241c35202a4cee2486c25
gd1993-03-16t1d02.flac:c7fd75025c8d2ac190ab09f9b073b11b
gd1993-03-16t1d03.flac:42ed8f2ad02c882b923a9fc409da4c35
gd1993-03-16t1d04.flac:afefe8cdc0a282fcfe9f396c7ebd1206
gd1993-03-16t1d05.flac:e45184fa4de9f83007a6a15296e05c03
gd1993-03-16t1d06.flac:5eb68fc0221abd0404b3ccabf5da6ed1
gd1993-03-16t1d07.flac:d2238555fe084bee5df864b30073fc4a
gd1993-03-16t2d01.flac:e2a2f954bda9bb25ef4a58992859dad2
gd1993-03-16t2d02.flac:3d786dbf42140ad33e4be86d1fbdbc0d
gd1993-03-16t2d03.flac:992d10ccda86095ca80181ff2a467827
gd1993-03-16t2d04.flac:aa268742183be91ac88ae7cb915e90e1
gd1993-03-16t2d05.flac:172143615652389b4a70280b4bd6db26
gd1993-03-16t3d01.flac:4e95ec7edcaa6a062d310928fc05cbae
gd1993-03-16t3d02.flac:83750e72bdd3d8ca346296e11683732e
gd1993-03-16t3d03.flac:893e3b2fac931d5a577a81afae860846
gd1993-03-16t3d04.flac:c395db4049449ddf8868ec25608429d7
gd1993-03-16t3d05.flac:1b285f997eb8f866466255ef323a8d68
flac-md5
7a1a4aef59f05817ad6c3ec1d1a06b8a *gd1993-03-16t1d01.flac
c80fd93d9351d0bcc5ac388c5990a19a *gd1993-03-16t1d02.flac
0cd9c40d5e47c75a5a6fc2cc7cf2e70c *gd1993-03-16t1d03.flac
b00c3f52a3e3b9c6680a241f1f903c86 *gd1993-03-16t1d04.flac
0c8e664b977939af2daf32b7e9d21591 *gd1993-03-16t1d05.flac
ea019bb28d17fe0d93736466e3302edf *gd1993-03-16t1d06.flac
fb41ba554a81bf71ad71ac7dc6f17c08 *gd1993-03-16t1d07.flac
45bb9d6930016544faf51085f9b862a5 *gd1993-03-16t2d01.flac
a320b8e5975996cf5daedaa84e852412 *gd1993-03-16t2d02.flac
20587a7df51740b4b0f5dd3f98c75a59 *gd1993-03-16t2d03.flac
21cf49fd58d53682b5fa80817c6c8d6e *gd1993-03-16t2d04.flac
92d504c1765f4e4dc8e1f7be27e714ad *gd1993-03-16t2d05.flac
e5c1b927049ab6f1227f66b31e0ea584 *gd1993-03-16t3d01.flac
479884f32bbcdbf1bc5f45e8a396ec9f *gd1993-03-16t3d02.flac
140a9dd477ad449ebfa94dd430dccc0c *gd1993-03-16t3d03.flac
e0eab40962a9759de1a59a04f63adc28 *gd1993-03-16t3d04.flac
e5b1e0d5f243c61c073c63a7e0f202be *gd1993-03-16t3d05.flac

Comments
Add Comment
Other Sources (comments)
sbd> dat> c> dat> cdr; via... (1) Source: Af: AKG 414's>D... (1) flac16; record: akg... (0) flac16; AKG... (0) flac16; Sennheiser... (0) flac16; Recording... (0) flac16; Matrix 2... (0) flac16/48kHz; 5.1... (0) flac16/48kHz; Source... (0) flac16/48kHz; Set 2... (0)
Date User Comment