Browse Collections Artists Sources   Search Dates

Add Show    List Management    Help


Grateful Dead 07/10/87
John F Kennedy Stadium, Philadelphia, PA
Comments Add Comment    Source Collectors    Add to Collection    Add to Want List    History
Source # 135276 Other Sources
Entered by Matt Vernon
Checksums flac-md5 , ffp
Disc Counts 0 / 0
Media Size Compressed: 1.43 GB (1530920960 bytes)
Uncompressed: 2.06 GB (2212391480 bytes)
Date Circulated
Date Added
02/27/2016
02/27/2016
Source Summary flac16; Matrix 2 Source Mix - SBD (shnid=101651) Recording Info: SBD -> Cassette Master -> CD; Transfer Info: CD -> Samplitude Professional v10.02 -> FLAC; All Transfers and Mastering By Charlie Miller + AUD (shnid 87266) AUD: Nakamichi CM-700's > patched from one Sony D5 > Sony TC-D5M > Maxell MX-90's (no Dolby), set up FOB. Taped by Ted Carpenter. Transfer: MAC > Nakamichi BX-125 (no Dolby) > Audiophile 2496 > Soundforge > CD-Wave > TLH > FLAC. Transferred by Andrew F. - matrix mixing by Kevin Tobin 
  Archive
Source Information - Download Text | Download Zip
Grateful Dead
JFK Stadium,
Philadelphia, PA
July 10, 1987

SBD + AUD Matrix 2 Source Mix(50%-SBD/50%-AUD)

Set 1:
d1t01 - Tuning
d1t02 - Iko Iko
d1t03 - Jack Straw
d1t04 - Sugaree
d1t05 - New Minglewood Blues
d1t06 - Althea
d1t07 - My Brother Esau
d1t08 - Take A Step Back / Mexican Hat Dance Tuning
d1t09 - When Push Comes To Shove
d1t10 - Cassidy
d2t01 - China Cat Sunflower ->
d2t02 - I Know You Rider
d2t03 - Looks Like Rain ->
d2t04 - Terrapin Station ->
d2t05 - Drums ->
d2t06 - Space ->
d2t07 - I Need A Miracle ->
d2t08 - Black Peter ->
d2t09 - Around And Around ->
d2t10 - One More Saturday Night

Set 2:
d3t01 - Tangled Up In Blue
d3t02 - I'll Be Your Baby Tonight
d3t03 - Man Of Peace
d3t04 - The Ballad Of Frankie Lee And Judas Priest
d3t05 - John Brown
d3t06 - Simple Twist Of Fate
d3t07 - Ballad Of A Thin Man
d3t08 - Stuck Inside Of Mobile With The Memphis Blues Again
d3t09 - Chimes Of Freedom
d3t10 - Queen Jane Approximately
d3t11 - Gotta Serve Somebody
d3t12 - Joey
d3t13 - All Along The Watchtower

Encore:
d3t14 - Touch Of Grey

Audio Information:
Original SBD (shnid=101651)

Recording Info:
SBD -> Cassette Master -> CD

Transfer Info:
CD -> Samplitude Professional v10.02 -> FLAC
(3 Discs Audio / 2 Discs FLAC)

All Transfers and Mastering By Charlie Miller
[email protected]
July 30, 2008


Notes:
-- Set 1 is seamless
-- Set 2 with Bob Dylan

Original AUD (shnid=87266)

AUD: Nakamichi CM-700's > patched from one Sony D5 > Sony TC-D5M >
Maxell MX-90's (no Dolby), set up FOB. Taped by Ted Carpenter.

Transfer: MAC > Nakamichi BX-125 (no Dolby) > Audiophile 2496 >
Soundforge > CD-Wave > TLH > FLAC. Transferred by Andrew F.

Both Sources were patched with:
(shnid=3859)
Sennheiser ME80 -> Cassette Master -> CD
---------------------------------------------------------
- Mixed by [email protected]
- FLAC conversion 27-FEB-2016 - Trader Little Helper
- Tagged 27-FEB-2016 - Tag&Rename
---------------------------------------------------------
Multitrack Mixdown Settings

SET ONE

Stereo Matrix
SBD -.5
AUD -.5

SET TWO

Stereo Matrix
SBD -.5
AUD -.5
---------------------------------------------------------

Brokedown House Production

    length     expanded size    cdr  WAVE problems  fmt   ratio  filename
     0:51.04        9005852 B   ---   --   -----    wav  1.0000  gd1987-07-10d1t01.wav
     7:44.58       81986060 B   ---   --   -----    wav  1.0000  gd1987-07-10d1t02.wav
     6:28.25       68502044 B   ---   --   -----    wav  1.0000  gd1987-07-10d1t03.wav
     8:30.17       90004028 B   ---   --   -----    wav  1.0000  gd1987-07-10d1t04.wav
     8:43.73       92428940 B   ---   --   -----    wav  1.0000  gd1987-07-10d1t05.wav
     7:21.02       77797148 B   ---   --   -----    wav  1.0000  gd1987-07-10d1t06.wav
     4:59.73       52915340 B   ---   --   -----    wav  1.0000  gd1987-07-10d1t07.wav
     1:34.71       16748636 B   ---   --   -----    wav  1.0000  gd1987-07-10d1t08.wav
     6:07.10       64762364 B   ---   --   -----    wav  1.0000  gd1987-07-10d1t09.wav
     8:06.02       85735148 B   ---   --   -----    wav  1.0000  gd1987-07-10d1t10.wav
     5:14.68       55549580 B   ---   --   -----    wav  1.0000  gd1987-07-10d2t01.wav
     6:35.11       69703916 B   ---   --   -----    wav  1.0000  gd1987-07-10d2t02.wav
     8:28.65       89764124 B   ---   --   -----    wav  1.0000  gd1987-07-10d2t03.wav
    10:48.45      114413084 B   ---   --   -----    wav  1.0000  gd1987-07-10d2t04.wav
     9:36.11      101632316 B   ---   --   -----    wav  1.0000  gd1987-07-10d2t05.wav
     4:25.00       46746044 B   ---   --   -----    wav  1.0000  gd1987-07-10d2t06.wav
     5:16.17       55782428 B   ---   --   -----    wav  1.0000  gd1987-07-10d2t07.wav
     7:54.04       83623052 B   ---   --   -----    wav  1.0000  gd1987-07-10d2t08.wav
     4:21.00       46040444 B   ---   --   -----    wav  1.0000  gd1987-07-10d2t09.wav
     4:43.03       49928300 B   ---   --   -----    wav  1.0000  gd1987-07-10d2t10.wav
     5:43.71       60672236 B   ---   --   -----    wav  1.0000  gd1987-07-10d3t01.wav
     5:12.71       55203836 B   ---   --   -----    wav  1.0000  gd1987-07-10d3t02.wav
     4:53.05       51697004 B   ---   --   -----    wav  1.0000  gd1987-07-10d3t03.wav
     5:26.30       57577004 B   ---   --   -----    wav  1.0000  gd1987-07-10d3t04.wav
     6:12.41       65717276 B   ---   --   -----    wav  1.0000  gd1987-07-10d3t05.wav
     6:04.27       64273148 B   ---   --   -----    wav  1.0000  gd1987-07-10d3t06.wav
     5:32.07       58581308 B   ---   --   -----    wav  1.0000  gd1987-07-10d3t07.wav
     6:48.49       72086492 B   ---   --   -----    wav  1.0000  gd1987-07-10d3t08.wav
     5:59.59       63466412 B   ---   --   -----    wav  1.0000  gd1987-07-10d3t09.wav
     1:10.32       12423308 B   ---   --   -----    wav  1.0000  gd1987-07-10d3t10.wav
     4:23.00       46393244 B   ---   --   -----    wav  1.0000  gd1987-07-10d3t11.wav
     9:42.24      102721292 B   ---   --   -----    wav  1.0000  gd1987-07-10d3t12.wav
     7:36.08       80457260 B   ---   --   -----    wav  1.0000  gd1987-07-10d3t13.wav
     6:25.59       68052812 B   ---   --   -----    wav  1.0000  gd1987-07-10d3t14.wav
   209:01.67     2212391480 B                            1.0000  (34 files)





Show Checksums
flac-md5
529041d08e36eb297a51d05468b4ccf7 *gd1987-07-10d1t01.flac
4198622fb8c6092dabac1ee3e194c781 *gd1987-07-10d1t02.flac
83c48d99e3be33c8d46d858297b3abbc *gd1987-07-10d1t03.flac
dddc27464d1dc9b18a646fa052ffb075 *gd1987-07-10d1t04.flac
2d148e9b4355014f7b3d701b015c8771 *gd1987-07-10d1t05.flac
a20485f0fb23eb3d59287c7307909240 *gd1987-07-10d1t06.flac
44df4bc2ba000e49a689ba4f046c45f4 *gd1987-07-10d1t07.flac
47f3c7e2319d1ead9f6b83b8494f1014 *gd1987-07-10d1t08.flac
a9fd145b3d437cab2a44be9591448a13 *gd1987-07-10d1t09.flac
e1d7ab373de5b15f1a6a0e4c1437705f *gd1987-07-10d1t10.flac
dc9db28bea562d5a546bb6a8409636f2 *gd1987-07-10d2t01.flac
c4b089215d0189c7a4fa9c2051a2082c *gd1987-07-10d2t02.flac
7774fa0489c3d7881cc1f26e2b12f9e9 *gd1987-07-10d2t03.flac
2867e78b3045ba1fdbbd80b58047606a *gd1987-07-10d2t04.flac
35eeaed0d84cfd733533b250623423f4 *gd1987-07-10d2t05.flac
8e04c3679c14bee1a862f291e04e8305 *gd1987-07-10d2t06.flac
ddf1edeb137bf268c95422068d9e5eb5 *gd1987-07-10d2t07.flac
042788ab894380bd65955675f649bceb *gd1987-07-10d2t08.flac
55f567006e1cbf082f1e52d3c62006ad *gd1987-07-10d2t09.flac
2b8db3e1c1ff0358b26d385b89961bf5 *gd1987-07-10d2t10.flac
351d1a50d8a317f926ec670bc012bdc9 *gd1987-07-10d3t01.flac
8251080aa5faa901d752d2bfb3cfd5a9 *gd1987-07-10d3t02.flac
780820d36d15abbf3bab5a458bab0a08 *gd1987-07-10d3t03.flac
a9fd6c82e3d82062e5b288415eebeb12 *gd1987-07-10d3t04.flac
062a74dc22544cfba62cf6a46de1f9c1 *gd1987-07-10d3t05.flac
cda7e3cc6ad79fd8f227b52ef5b21260 *gd1987-07-10d3t06.flac
bd3420b918debb50cc68f226a5c99acf *gd1987-07-10d3t07.flac
4efeab44f7732f03b9c530a87ba82b8a *gd1987-07-10d3t08.flac
5d217853047214f238be1ff15dd3f456 *gd1987-07-10d3t09.flac
f8bf1b41dd373eb3951947f6621854ca *gd1987-07-10d3t10.flac
af065df7839ffbfcfe379c01eb84f8b1 *gd1987-07-10d3t11.flac
fa4d0d3bfa249532eb009aa25682b630 *gd1987-07-10d3t12.flac
313db4dcd8e02638b6c6edcae724bf4a *gd1987-07-10d3t13.flac
9906493fd86880876f14381d0c3b51b7 *gd1987-07-10d3t14.flac
ffp
gd1987-07-10d1t01.flac:1a189c1836d12bf5e30f540156d1757f
gd1987-07-10d1t02.flac:251b0c655edf2bf59f1b3a4214a9f6b1
gd1987-07-10d1t03.flac:de86e1c2edf7b1e9fb546718a40745b9
gd1987-07-10d1t04.flac:09420db24732c5f7d5bfeb1fbd7386d7
gd1987-07-10d1t05.flac:ef5d82af0fb8a0e0c38c2101dd8e5dc2
gd1987-07-10d1t06.flac:afb2298142160c2992e8bbdd316b9532
gd1987-07-10d1t07.flac:510f33e5422e375818a0ac13ce7cbb05
gd1987-07-10d1t08.flac:564ebcbc83c6038e97b535f17230d54e
gd1987-07-10d1t09.flac:b7d2fc19c13ca7fa097b3e3ce03e40fb
gd1987-07-10d1t10.flac:c269bbfbf5bb6c5579ea8e3536654dbd
gd1987-07-10d2t01.flac:54ff597a5228c7d550b4005ca48ab17d
gd1987-07-10d2t02.flac:422e6e341443cfbfa922f6d038285fca
gd1987-07-10d2t03.flac:99cb76481d9311145c5be88f56fa440e
gd1987-07-10d2t04.flac:b9914679e4e98414c3441d988e6e4e44
gd1987-07-10d2t05.flac:81ddb2cf16f6cc0bd481e8cfc603688c
gd1987-07-10d2t06.flac:1da72b191e157256d73b4b4b61d8a066
gd1987-07-10d2t07.flac:18ad2bc364dc9986811b1b5eac61dcb6
gd1987-07-10d2t08.flac:a2921f8a5cb42a61d3b6a42195337ed1
gd1987-07-10d2t09.flac:02a1d54a656adb3c0c1df12ce212d89e
gd1987-07-10d2t10.flac:dc271026a7da8d5e55cef50d00c16191
gd1987-07-10d3t01.flac:b239efe2753cfbcb0dd870ad47d10af3
gd1987-07-10d3t02.flac:0d9ec0cb83d1753967877c2e33e93bf9
gd1987-07-10d3t03.flac:34008fd327d01b0a49b9f971dcac065c
gd1987-07-10d3t04.flac:dab6b83251523532db3c3c1e39b7d6e1
gd1987-07-10d3t05.flac:ec45a2b8d5a466e2cc771b6044bb42d9
gd1987-07-10d3t06.flac:ab54992c04c34c43e115219b70756b73
gd1987-07-10d3t07.flac:65f845f9d70e2fe283397dd360fb0d5b
gd1987-07-10d3t08.flac:3a9c53ad2c58802228fe2fe7df9c1b67
gd1987-07-10d3t09.flac:103e4c44e5a615c11660024468634570
gd1987-07-10d3t10.flac:5205527b4fca3b6b3e3dbdd96664b2ea
gd1987-07-10d3t11.flac:34f56e37abfdf0488d492a6a891b9135
gd1987-07-10d3t12.flac:4e6dc0dc125a43de56ba7c77ff750c55
gd1987-07-10d3t13.flac:56fd3ec52445c4284d4449dc07513d6a
gd1987-07-10d3t14.flac:ae8f8a4f7ffa8900219f006fefe9ddce

Comments
Add Comment
Other Sources (comments)
FOB> aud> senn me80>... (0) flac16; AUD:... (0) Soundboard (except Queen... (1) Soundboard > ? > SHN (One... (0) flac16; Recording... (0) flac16; Nak 300 Mics... (0) flac16; Set 1 Only... (0) DTS-Audio-CD 5.1... (0) flac16/48kHz; 5.1... (0)
Date User Comment
02/27/2016 Wharfrat73 Updated .md5.