Browse Collections Artists Sources   Search Dates

Add Show    List Management    Help


Grateful Dead 03/03/87
Henry J Kaiser Convention Center, Oakland, CA
Comments Add Comment    Source Collectors    Add to Collection    Add to Want List    History
Source # 135313 Other Sources
Entered by Matt Vernon
Checksums ffp , flac-md5
Disc Counts 0 / 0
Media Size Compressed: 1.64 GB (1763057664 bytes)
Uncompressed: 2.16 GB (2323145186 bytes)
Date Circulated
Date Added
03/05/2016
03/05/2016
Source Summary flac24; AUD: Unknown mics & lead deck > Sony TC-D5M > Maxell MX-Metal 90's. Recording by Jon Bernstein. Transfer: MAC > Nakamichi CR-5A > Edirol FA-66 > Wavelab 2448 > CD-Wave (24bit output) > TLH > FLAC 2448 tagged. Transferred by Andrew F. 03/2016 
  Archive
Source Information - Download Text | Download Zip
GRATEFUL DEAD
Kaiser Convention Center
Oakland CA
03-03-1987

24bit/48kHz file-set

s1t01 crowd
s1t02 Quinn the Eskimo
s1t03 Greatest Story Ever Told
s1t04 Loser
s1t05 Minglewood Blues
s1t06 Tons of Steel
s1t07 Cassidy
s1t08 Mississippi Half Step >
s1t09 Promised Land

s2t01 Iko Iko parade with Dirty Dozen
s2t02 Saint of Circumstance
s2t03 Terrapin >
s2t04 Drums >
s2t05 Jam >
s2t06 Gimme Some Lovin' >
s2t07 Wharf Rat >
s2t08 Throwing Stones >
s2t09 Touch of Grey
s2t10 Encore: Brokedown Palace

AUD: Unknown mics & lead deck > Sony TC-D5M > Maxell MX-Metal 90's. Recording by Jon Bernstein.

Transfer: MAC > Nakamichi CR-5A > Edirol FA-66 > Wavelab 2448 > CD-Wave (24bit output) > TLH > FLAC 2448 tagged. Transferred by Andrew F. 03/2016

Note: Tape-flips patched with ID-82725; crowd after Cassidy 6:14 > Half Step 0:03, and Jam 0:00 > 0:40.

    length     expanded size    cdr  WAVE problems  fmt   ratio  filename
     1:24.373      24299564 B   cxx   --   ---xx   flac  0.7269  gd1987-03-03s1t01.flac
     4:33.680      78819884 B   cxx   --   ---xx   flac  0.7742  gd1987-03-03s1t02.flac
     4:44.587      81961004 B   cxx   --   ---xx   flac  0.7675  gd1987-03-03s1t03.flac
     7:35.387     131151404 B   cxx   --   ---xx   flac  0.7666  gd1987-03-03s1t04.flac
     8:03.373     139211564 B   cxx   --   ---xx   flac  0.7666  gd1987-03-03s1t05.flac
     6:32.213     112957484 B   cxx   --   ---xx   flac  0.7639  gd1987-03-03s1t06.flac
     6:21.573     109893164 B   cxx   --   ---xx   flac  0.7757  gd1987-03-03s1t07.flac
     9:10.707     158603564 B   cxx   --   ---xx   flac  0.7644  gd1987-03-03s1t08.flac
     4:34.237      78980252 B   cxx   --   ---xx   flac  0.7689  gd1987-03-03s1t09.flac
    12:03.960     208500524 B   cxx   --   ---xx   flac  0.7667  gd1987-03-03s2t01.flac
     7:21.320     127100204 B   cxx   --   ---xx   flac  0.7705  gd1987-03-03s2t02.flac
    12:53.587     222793004 B   cxx   --   ---xx   flac  0.7575  gd1987-03-03s2t03.flac
     6:43.733     116275244 B   cxx   --   ---xx   flac  0.7202  gd1987-03-03s2t04.flac
     8:03.107     139134764 B   cxx   --   ---xx   flac  0.7011  gd1987-03-03s2t05.flac
     5:04.933      87820844 B   cxx   --   ---xx   flac  0.7686  gd1987-03-03s2t06.flac
     9:04.547     156829484 B   cxx   --   ---xx   flac  0.7568  gd1987-03-03s2t07.flac
     8:40.400     149875244 B   cxx   --   ---xx   flac  0.7680  gd1987-03-03s2t08.flac
     5:45.600      99532844 B   cxx   --   ---xx   flac  0.7787  gd1987-03-03s2t09.flac
     5:45.157      99405146 B   cxx   --   ---xx   flac  0.7444  gd1987-03-03s2t10.flac
   134:26.473    2323145186 B                            0.7589  (19 files)

No errors occured.



Show Checksums
ffp
gd1987-03-03s1t01.flac:61549bd27de6eefff00e263d50fcbc04
gd1987-03-03s1t02.flac:be042ed24d0f599b803ce47f580bb69e
gd1987-03-03s1t03.flac:f5e66ac852a8edb7a3dae1823c28f5ee
gd1987-03-03s1t04.flac:cca9c2470ff9d330bcb6e4b2cf9c665a
gd1987-03-03s1t05.flac:4702c2781d71c84e3b03d6f1b681abee
gd1987-03-03s1t06.flac:8925a08e34691fd4a3e50dbe4b11ceb5
gd1987-03-03s1t07.flac:ed1c20f1445f9c8dc9d8d8424baa1c32
gd1987-03-03s1t08.flac:0bbaf78fe6bd718f215e127adcd971a1
gd1987-03-03s1t09.flac:a33fa85c4ad7c2d97b3370f07c19da9f
gd1987-03-03s2t01.flac:825af84740abcf44a9d20181915b7b70
gd1987-03-03s2t02.flac:426547ab1ced50b78ab5ae90d6dc830a
gd1987-03-03s2t03.flac:8f0e57869bf2486614230d323461ff34
gd1987-03-03s2t04.flac:c2b8827717af1bab616b52097c46777d
gd1987-03-03s2t05.flac:5b219a845ecbaf4496f30a8f8a35049e
gd1987-03-03s2t06.flac:cc74a8d0601cec4f01fb39191e8eed93
gd1987-03-03s2t07.flac:7cee37e44e5dc39b36fb87ed47a450fb
gd1987-03-03s2t08.flac:1fed7a03853c0a71faad48e231b25766
gd1987-03-03s2t09.flac:df4b7dab9ade4226d75e730c4ad45753
gd1987-03-03s2t10.flac:5fb360d8a2c11fad5e0c84136c464099
flac-md5
e6f7e26868b8604bcfabe53abcbd88ce *gd1987-03-03s1t01.flac
9cb9144fda61c3f2d1cf6be6ea3b00b4 *gd1987-03-03s1t02.flac
2a6ea71e6038b2e3452ea3ecd7ba49f5 *gd1987-03-03s1t03.flac
6c9a5f2405404c9245b913d9697ae3cc *gd1987-03-03s1t04.flac
d2aba5944896cf7216402d63a6851fac *gd1987-03-03s1t05.flac
b60ff75d702a4b844f7b11a35e35ef70 *gd1987-03-03s1t06.flac
f808ba24c4fca52527b75b769bfad265 *gd1987-03-03s1t07.flac
e017382ca8aaef5b999ae25f3a76db44 *gd1987-03-03s1t08.flac
0053ba344b292c44f940b14d94b96608 *gd1987-03-03s1t09.flac
a826bf1bafb54dc2f28612cc073960ff *gd1987-03-03s2t01.flac
01cf8e85cf7a55f8389f1ef0bbd6d902 *gd1987-03-03s2t02.flac
2e35e10a78a0979142f16f22c8d1a116 *gd1987-03-03s2t03.flac
b25c8e4438c77743e27fccda65ee9f55 *gd1987-03-03s2t04.flac
93747f5482e1db6eda5420af02c7a548 *gd1987-03-03s2t05.flac
2e1b47e545e34709760ceced9e53a91b *gd1987-03-03s2t06.flac
e1e18c573f7b94b7cede65d4e96f7ee4 *gd1987-03-03s2t07.flac
806f5f3335d8a86821326ca6ba6dc351 *gd1987-03-03s2t08.flac
b355b799de8ce74e9c5eea01512dcbc8 *gd1987-03-03s2t09.flac
d50d42fd7d4df7fea6b3180d956abb61 *gd1987-03-03s2t10.flac

Comments
Add Comment
Other Sources (comments)
SBD > MC > DAT > CDR; via... (0) flac16; Recording... (0) flac16; Recording... (0) flac16; AUD: Unknown... (0) flac16; Matrix 2... (0) DTS-Audio-CD 5.1... (0) flac16/48kHz; 5.1... (0)
Date User Comment