Browse Collections Artists Sources   Search Dates

Add Show    List Management    Help


Grateful Dead 03/03/87
Henry J Kaiser Convention Center, Oakland, CA
Comments Add Comment    Source Collectors    Add to Collection    Add to Want List    History
Source # 135314 Other Sources
Entered by Matt Vernon
Checksums flac-md5 , ffp
Disc Counts 0 / 0
Media Size Compressed: 878.59 MB (921268224 bytes)
Uncompressed: 1.33 GB (1422927908 bytes)
Date Circulated
Date Added
03/05/2016
03/05/2016
Source Summary flac16; AUD: Unknown mics & lead deck > Sony TC-D5M > Maxell MX-Metal 90's. Recording by Jon Bernstein. Transfer: MAC > Nakamichi CR-5A > Edirol FA-66 > Wavelab 2448 > CD-Wave (24bit output) > R8Brain > TLH > FLAC 1644 tagged. Transferred by Andrew F. 03/2016 
  Archive
Source Information - Download Text | Download Zip
GRATEFUL DEAD
Kaiser Convention Center
Oakland CA
03-03-1987

16bit/44.1kHz file-set

s1t01 crowd
s1t02 Quinn the Eskimo
s1t03 Greatest Story Ever Told
s1t04 Loser
s1t05 Minglewood Blues
s1t06 Tons of Steel
s1t07 Cassidy
s1t08 Mississippi Half Step >
s1t09 Promised Land

s2t01 Iko Iko parade with Dirty Dozen
s2t02 Saint of Circumstance
s2t03 Terrapin >
s2t04 Drums >
s2t05 Jam >
s2t06 Gimme Some Lovin' >
s2t07 Wharf Rat >
s2t08 Throwing Stones >
s2t09 Touch of Grey
s2t10 Encore: Brokedown Palace

AUD: Unknown mics & lead deck > Sony TC-D5M > Maxell MX-Metal 90's. Recording by Jon Bernstein.

Transfer: MAC > Nakamichi CR-5A > Edirol FA-66 > Wavelab 2448 > CD-Wave (24bit output) > R8Brain > TLH > FLAC 1644 tagged. Transferred by Andrew F. 03/2016

Note: Tape-flips patched with ID-82725; crowd after Cassidy 6:14 > Half Step 0:03, and Jam 0:00 > 0:40.

    length     expanded size    cdr  WAVE problems  fmt   ratio  filename
     1:24.28       14883500 B   ---   --   ---xx   flac  0.6003  gd1987-03-03s1t01.flac
     4:33.51       48277196 B   ---   --   ---xx   flac  0.6719  gd1987-03-03s1t02.flac
     4:44.44       50201132 B   ---   --   ---xx   flac  0.6610  gd1987-03-03s1t03.flac
     7:35.29       80330252 B   ---   --   ---xx   flac  0.6595  gd1987-03-03s1t04.flac
     8:03.28       85267100 B   ---   --   ---xx   flac  0.6598  gd1987-03-03s1t05.flac
     6:32.16       69186476 B   ---   --   ---xx   flac  0.6549  gd1987-03-03s1t06.flac
     6:21.43       67309580 B   ---   --   ---xx   flac  0.6740  gd1987-03-03s1t07.flac
     9:10.53       97144700 B   ---   --   ---xx   flac  0.6554  gd1987-03-03s1t08.flac
     4:34.18       48375980 B   ---   --   ---xx   flac  0.6644  gd1987-03-03s1t09.flac
    12:03.72      127706588 B   ---   --   ---xx   flac  0.6614  gd1987-03-03s2t01.flac
     7:21.24       77848892 B   ---   --   ---xx   flac  0.6661  gd1987-03-03s2t02.flac
    12:53.44      136460732 B   ---   --   ---xx   flac  0.6452  gd1987-03-03s2t03.flac
     6:43.55       71218604 B   ---   --   ---xx   flac  0.5854  gd1987-03-03s2t04.flac
     8:03.08       85220060 B   ---   --   ---xx   flac  0.5549  gd1987-03-03s2t05.flac
     5:04.70       53790284 B   ---   --   ---xx   flac  0.6631  gd1987-03-03s2t06.flac
     9:04.41       96058076 B   ---   --   ---xx   flac  0.6435  gd1987-03-03s2t07.flac
     8:40.30       91798604 B   ---   --   ---xx   flac  0.6621  gd1987-03-03s2t08.flac
     5:45.45       60963884 B   ---   --   ---xx   flac  0.6792  gd1987-03-03s2t09.flac
     5:45.12       60886268 B   ---   --   ---xx   flac  0.6227  gd1987-03-03s2t10.flac
   134:26.36     1422927908 B                            0.6474  (19 files)

No errors occured.



Show Checksums
flac-md5
6ce363f1a2daec393db24a2c22f7d4ed *gd1987-03-03s1t01.flac
0d286119a3828b0eab55df01d531f133 *gd1987-03-03s1t02.flac
60607dd81dc1a01ca08378aaa8b421ac *gd1987-03-03s1t03.flac
eaf3757cf5190175afe622a30d98a98f *gd1987-03-03s1t04.flac
6cc95464b20188ae2e55bb36fb937b19 *gd1987-03-03s1t05.flac
4f7edc7b18eb3a7318c9227eb97d1ea9 *gd1987-03-03s1t06.flac
0400cde0acab25c7a7fa49b5cf008b8c *gd1987-03-03s1t07.flac
544c6910c46fe11c63013754316b1769 *gd1987-03-03s1t08.flac
d61c4413f39bafd188ce9b814eb793e6 *gd1987-03-03s1t09.flac
74c0ae438acfe7496c50cedadc313e52 *gd1987-03-03s2t01.flac
aeb89d8c074306973d289bb3cea8a7d4 *gd1987-03-03s2t02.flac
366783432f1f4541a16816d5a0782539 *gd1987-03-03s2t03.flac
0e56012611a77089b829b0f8b2b85bdd *gd1987-03-03s2t04.flac
fe668e3022e4a5d447ade69fd300b9d8 *gd1987-03-03s2t05.flac
40023d766f52a2b10cb8b529edb3c8d4 *gd1987-03-03s2t06.flac
6ee30c1a035130f38ed3f46523983171 *gd1987-03-03s2t07.flac
5f7842300e6dcac66953a30308638740 *gd1987-03-03s2t08.flac
924289c05f955a1426f69698959d2ea5 *gd1987-03-03s2t09.flac
07cf0bd1f8bd15eeaf517aed94b19a51 *gd1987-03-03s2t10.flac
ffp
gd1987-03-03s1t01.flac:deab4eebce32886c7d9290dbdbf7847c
gd1987-03-03s1t02.flac:222b975588d657522e844b5a2e31bd8b
gd1987-03-03s1t03.flac:c6b479fa1f6eb267daaece5eaaec1019
gd1987-03-03s1t04.flac:1791bb42a2cb4932be1b4de8d22ead68
gd1987-03-03s1t05.flac:1991a2bbc9ef58cb0326298c7155e33d
gd1987-03-03s1t06.flac:a5a3fdac7f0f02343cdb47cc88222cc4
gd1987-03-03s1t07.flac:5611d105a0871ea431fb6bb0e7d4dbf6
gd1987-03-03s1t08.flac:b9bac556b1c263d0e23a1cb4c03c007c
gd1987-03-03s1t09.flac:71297b723e1cf44513f6048d946cc8bf
gd1987-03-03s2t01.flac:c7b169f70b3ff27677f1708c6474d5b2
gd1987-03-03s2t02.flac:a376ff5583630d309108eba327984069
gd1987-03-03s2t03.flac:82d8d79ef3bfe8ef299c51ca5407f3e3
gd1987-03-03s2t04.flac:08c1e3f87a2ed9122a9bcc2efbd8677a
gd1987-03-03s2t05.flac:3c440d73b4172eabd7002932c2f320ed
gd1987-03-03s2t06.flac:f55426c37d196a192ed25d933427b99f
gd1987-03-03s2t07.flac:b5116b6f3d4f9cc83d3434b9a541a6c1
gd1987-03-03s2t08.flac:9c43ca72809b8e43e36037545f49b20a
gd1987-03-03s2t09.flac:d944b89c1a546814585147e50edc690a
gd1987-03-03s2t10.flac:c964a905b150cffa6dc494ff3faec1e2

Comments
Add Comment
Other Sources (comments)
SBD > MC > DAT > CDR; via... (0) flac16; Recording... (0) flac16; Recording... (0) flac24; AUD: Unknown... (0) flac16; Matrix 2... (0) DTS-Audio-CD 5.1... (0) flac16/48kHz; 5.1... (0)
Date User Comment