Browse Collections Artists Sources   Search Dates

Add Show    List Management    Help


Grateful Dead 03/02/87
Henry J Kaiser Convention Center, Oakland, CA
Comments Add Comment    Source Collectors    Add to Collection    Add to Want List    History
Source # 135359 Other Sources
Entered by Matt Vernon
Checksums flac-md5 , ffp
Disc Counts 0 / 0
Media Size Compressed: 1.76 GB (1884708864 bytes)
Uncompressed: 2.32 GB (2492080088 bytes)
Date Circulated
Date Added
03/12/2016
03/12/2016
Source Summary flac24; AUD: Unknown mics & lead deck > Sony TC-D5M > Maxell MX-Metal 90's. Recording by Jon Bernstein. Transfer: MAC > Nakamichi CR-5A > Edirol FA-66 > Wavelab 2448 > CD-Wave (24bit output) > TLH > FLAC 2448 tagged. Transferred by Andrew F. 03/2016 
  Archive
Source Information - Download Text | Download Zip
GRATEFUL DEAD
Kaiser Convention Center
Oakland CA
03-02-1987

24bit/48kHz file-set

s1t01 finiculi finicula
s1t02 Jack Straw
s1t03 Althea
s1t04 C.C. Rider
s1t05 Birdsong
s1t06 Beat it on Down the Line
s1t07 Ramble on Rose
s1t08 Feel Like a Stranger

s2t01 China Cat Sunflower >
s2t02 I Know You Rider >
s2t03 Women are Smarter
s2t04 Ship of Fools
s2t05 Estimated Prophet >
s2t06 Eyes of the World >
s2t07 Drums >
s2t08 Jam >
s2t09 Truckin' >
s2t10 Morning Dew
s2t11 Encore: Johnny B. Goode

AUD: Unknown mics & lead deck > Sony TC-D5M > Maxell MX-Metal 90's. Recording by Jon Bernstein.

Transfer: MAC > Nakamichi CR-5A > Edirol FA-66 > Wavelab 2448 > CD-Wave (24bit output) > TLH > FLAC 2448 tagged. Transferred by Andrew F. 03/2016

Note: ID-82729 provides Eyes of the World 8:21 > 8:41, with crossfade at end of patch.

    length     expanded size    cdr  WAVE problems  fmt   ratio  filename
     3:11.187      55061804 B   cxx   --   ---xx   flac  0.7216  gd1987-03-02s1t01.flac
     4:59.773      86334764 B   cxx   --   ---xx   flac  0.7703  gd1987-03-02s1t02.flac
     8:07.800     140486444 B   cxx   --   ---xx   flac  0.7616  gd1987-03-02s1t03.flac
     7:58.547     137821484 B   cxx   --   ---xx   flac  0.7593  gd1987-03-02s1t04.flac
    12:07.133     209414444 B   cxx   --   ---xx   flac  0.7578  gd1987-03-02s1t05.flac
     3:20.387      57711404 B   cxx   --   ---xx   flac  0.7713  gd1987-03-02s1t06.flac
     7:37.387     131727404 B   cxx   --   ---xx   flac  0.7601  gd1987-03-02s1t07.flac
     9:18.805     160935794 B   cxx   --   ---xx   flac  0.7735  gd1987-03-02s1t08.flac
     6:09.773     106494764 B   cxx   --   ---xx   flac  0.7642  gd1987-03-02s2t01.flac
     5:37.320      97148204 B   cxx   --   ---xx   flac  0.7735  gd1987-03-02s2t02.flac
     6:24.560     110753324 B   cxx   --   ---xx   flac  0.7682  gd1987-03-02s2t03.flac
     9:22.693     162055724 B   cxx   --   ---xx   flac  0.7462  gd1987-03-02s2t04.flac
    10:57.973     189496364 B   cxx   --   ---xx   flac  0.7662  gd1987-03-02s2t05.flac
    10:21.907     179109164 B   cxx   --   ---xx   flac  0.7686  gd1987-03-02s2t06.flac
    10:07.187     174869804 B   cxx   --   ---xx   flac  0.7220  gd1987-03-02s2t07.flac
     5:57.547     102973484 B   cxx   --   ---xx   flac  0.7048  gd1987-03-02s2t08.flac
     7:33.293     130548524 B   cxx   --   ---xx   flac  0.7620  gd1987-03-02s2t09.flac
    10:34.440     182718764 B   cxx   --   ---xx   flac  0.7468  gd1987-03-02s2t10.flac
     4:25.342      76418426 B   cxx   --   ---xx   flac  0.7696  gd1987-03-02s2t11.flac
   144:13.053    2492080088 B                            0.7563  (19 files)

No errors occured.



Show Checksums
flac-md5
5384777446776bfb29ad633967d60696 *gd1987-03-02s1t01.flac
abe3ec580af22fe5fc1a11b5570247bc *gd1987-03-02s1t02.flac
7225abf764340b2c17174c770a214b34 *gd1987-03-02s1t03.flac
144513c0c615ba28399b773769a80b47 *gd1987-03-02s1t04.flac
46b3afe7ac924260cf9c5ef609f3e26b *gd1987-03-02s1t05.flac
88e48011572c2e1d2a1d74f04b796ab9 *gd1987-03-02s1t06.flac
ade0a5cbdd41d5dd9d07ae2af995b32e *gd1987-03-02s1t07.flac
5f03553bcdba69948c35a2b8ede533e4 *gd1987-03-02s1t08.flac
27ad4040db3b4509e66ebdee3d5724c7 *gd1987-03-02s2t01.flac
b850d1f93177693b5c14c0f821c65ea3 *gd1987-03-02s2t02.flac
c07913f2a4647bb7cfe17293533ab7b2 *gd1987-03-02s2t03.flac
abe805dcac9b042fac0244a3d68ea534 *gd1987-03-02s2t04.flac
201e3e5ed068144cb2a9519a7c15e7fe *gd1987-03-02s2t05.flac
b1391a77db07f830284b3121a2ae9bb9 *gd1987-03-02s2t06.flac
9e871de46052fd4d2244a6846cbcb618 *gd1987-03-02s2t07.flac
67046c1acb04e64dc1a90790c5adb358 *gd1987-03-02s2t08.flac
6ee68728d2cfc784cb985ec4ea8ce103 *gd1987-03-02s2t09.flac
0f0ae9c98b6988febcbc91456a695426 *gd1987-03-02s2t10.flac
096bfc00ef49eae90a84b7cf87e774e2 *gd1987-03-02s2t11.flac
ffp
gd1987-03-02s1t01.flac:88f9dadbed01b074156e362959f4eb45
gd1987-03-02s1t02.flac:486228b5fa8d0bc56db55f47cfefe1f5
gd1987-03-02s1t03.flac:7a6b39c10f948614a47808d994eb88ac
gd1987-03-02s1t04.flac:04349684c775655b424448e4bd52a541
gd1987-03-02s1t05.flac:ccf4eb4cd641ccd38e3bde47d335b083
gd1987-03-02s1t06.flac:5e5ce8ab22b0cfa19ab70341072f12e3
gd1987-03-02s1t07.flac:41b3c1e52ef04939f55fecf370ecda9a
gd1987-03-02s1t08.flac:12d37c21fd5db6ac407200d2a6a23e8e
gd1987-03-02s2t01.flac:42f3e356c981ced98e8dd6cf27b237b5
gd1987-03-02s2t02.flac:01f32329aaac9e234ac52507e1f515e5
gd1987-03-02s2t03.flac:ec16232a9292f2687b4c4e085ef3598a
gd1987-03-02s2t04.flac:545f10511bda6d4afea1d9c88cc80450
gd1987-03-02s2t05.flac:630d59c04dc0e1356fc60cb68e92c7f2
gd1987-03-02s2t06.flac:a35d80d4c862bc2653b9067b3f40bbde
gd1987-03-02s2t07.flac:be7b9308f156db25eb0e6cd1a329c2fd
gd1987-03-02s2t08.flac:5311add8735331db865848c2262e61d0
gd1987-03-02s2t09.flac:5979c36d5111126cee7eff73db7d48aa
gd1987-03-02s2t10.flac:ab4b0c41983c21e5f5c680d39c84c5ba
gd1987-03-02s2t11.flac:88896232d02f654a6d8f982cbfdf674c

Comments
Add Comment
Other Sources (comments)
SBD; conversion by Mike... (2) flac16; Recording... (0) flac16; Recording... (0) flac16; AUD: Unknown... (0)
Date User Comment