Browse Collections Artists Sources   Search Dates

Add Show    List Management    Help


Grateful Dead 03/02/87
Henry J Kaiser Convention Center, Oakland, CA
Comments Add Comment    Source Collectors    Add to Collection    Add to Want List    History
Source # 135360 Other Sources
Entered by Matt Vernon
Checksums ffp , flac-md5
Disc Counts 0 / 0
Media Size Compressed: 936.41 MB (981893120 bytes)
Uncompressed: 1.42 GB (1526401796 bytes)
Date Circulated
Date Added
03/12/2016
03/12/2016
Source Summary flac16; AUD: Unknown mics & lead deck > Sony TC-D5M > Maxell MX-Metal 90's. Recording by Jon Bernstein. Transfer: MAC > Nakamichi CR-5A > Edirol FA-66 > Wavelab 2448 > CD-Wave (24bit output) > R8Brain > TLH > FLAC 1644 tagged. Transferred by Andrew F. 03/2016 
  Archive
Source Information - Download Text | Download Zip
GRATEFUL DEAD
Kaiser Convention Center
Oakland CA
03-02-1987

16bit/44.1kHz file-set

s1t01 finiculi finicula
s1t02 Jack Straw
s1t03 Althea
s1t04 C.C. Rider
s1t05 Birdsong
s1t06 Beat it on Down the Line
s1t07 Ramble on Rose
s1t08 Feel Like a Stranger

s2t01 China Cat Sunflower >
s2t02 I Know You Rider >
s2t03 Women are Smarter
s2t04 Ship of Fools
s2t05 Estimated Prophet >
s2t06 Eyes of the World >
s2t07 Drums >
s2t08 Jam >
s2t09 Truckin' >
s2t10 Morning Dew
s2t11 Encore: Johnny B. Goode

AUD: Unknown mics & lead deck > Sony TC-D5M > Maxell MX-Metal 90's. Recording by Jon Bernstein.

Transfer: MAC > Nakamichi CR-5A > Edirol FA-66 > Wavelab 2448 > CD-Wave (24bit output) > R8Brain > TLH > FLAC 1644 tagged. Transferred by Andrew F. 03/2016

Note: ID-82729 provides Eyes of the World 8:21 > 8:41, with crossfade at end of patch.

    length     expanded size    cdr  WAVE problems  fmt   ratio  filename
     3:11.14       33725372 B   ---   --   ---xx   flac  0.5899  gd1987-03-02s1t01.flac
     4:59.58       52880060 B   ---   --   ---xx   flac  0.6660  gd1987-03-02s1t02.flac
     8:07.60       86047964 B   ---   --   ---xx   flac  0.6518  gd1987-03-02s1t03.flac
     7:58.41       84415676 B   ---   --   ---xx   flac  0.6500  gd1987-03-02s1t04.flac
    12:07.10      128266364 B   ---   --   ---xx   flac  0.6456  gd1987-03-02s1t05.flac
     3:20.29       35348252 B   ---   --   ---xx   flac  0.6670  gd1987-03-02s1t06.flac
     7:37.29       80683052 B   ---   --   ---xx   flac  0.6488  gd1987-03-02s1t07.flac
     9:18.61       98574716 B   ---   --   ---xx   flac  0.6710  gd1987-03-02s1t08.flac
     6:09.58       65228060 B   ---   --   ---xx   flac  0.6565  gd1987-03-02s2t01.flac
     5:37.24       59503292 B   ---   --   ---xx   flac  0.6709  gd1987-03-02s2t02.flac
     6:24.42       67836428 B   ---   --   ---xx   flac  0.6619  gd1987-03-02s2t03.flac
     9:22.52       99259148 B   ---   --   ---xx   flac  0.6265  gd1987-03-02s2t04.flac
    10:57.73      116066540 B   ---   --   ---xx   flac  0.6587  gd1987-03-02s2t05.flac
    10:21.68      109704380 B   ---   --   ---xx   flac  0.6631  gd1987-03-02s2t06.flac
    10:07.14      107107772 B   ---   --   ---xx   flac  0.5879  gd1987-03-02s2t07.flac
     5:57.41       63071276 B   ---   --   ---xx   flac  0.5597  gd1987-03-02s2t08.flac
     7:33.22       79960988 B   ---   --   ---xx   flac  0.6523  gd1987-03-02s2t09.flac
    10:34.33      111915260 B   ---   --   ---xx   flac  0.6278  gd1987-03-02s2t10.flac
     4:25.26       46807196 B   ---   --   ---xx   flac  0.6661  gd1987-03-02s2t11.flac
   144:13.05     1526401796 B                            0.6432  (19 files)

No errors occured.



Show Checksums
ffp
gd1987-03-02s1t01.flac:54e6ec0866d01cfb9df7b9502a2390f5
gd1987-03-02s1t02.flac:cf5139b8d8c371721621dffb87069727
gd1987-03-02s1t03.flac:cf719085f8fce679b8232628ca5d0ed9
gd1987-03-02s1t04.flac:228cdbf00e8bc33b9971f607cf12c0ac
gd1987-03-02s1t05.flac:82a7848701dad158f069b54efa53bd52
gd1987-03-02s1t06.flac:68c3779c9c028d3231457c165d7da6e3
gd1987-03-02s1t07.flac:eda550968ce4c986747cccdf462b2263
gd1987-03-02s1t08.flac:677ad574a6963e27739333de665b6055
gd1987-03-02s2t01.flac:a0301f966948f66f3072ad3f0231f724
gd1987-03-02s2t02.flac:a7ef5eead343cbb4ea8ba8966814591e
gd1987-03-02s2t03.flac:bf43eb599d7e772ed47f965ec1d1df0a
gd1987-03-02s2t04.flac:05790770f0108c111790d31ca7f5f968
gd1987-03-02s2t05.flac:4dcc1d827600f43ee0151d3b6649d08c
gd1987-03-02s2t06.flac:fae8c1f40dc0eee37af0bbd394b03f84
gd1987-03-02s2t07.flac:b2265dc343cedbcfd5efc13aa60c789e
gd1987-03-02s2t08.flac:12d8b6d97f732519ac18abf88e9d0390
gd1987-03-02s2t09.flac:a26a109e42c68b9b035be0fa7fe2d37e
gd1987-03-02s2t10.flac:df47cf6b4075cc4830a1ca9e229cb1ae
gd1987-03-02s2t11.flac:3361d9a5eb941b42106120087b692856
flac-md5
4728780e50997cd863c2fc9adcc408dd *gd1987-03-02s1t01.flac
d5b772df4614633a691d90bcfb190e12 *gd1987-03-02s1t02.flac
27387ad6dcd1cd1e060c77d6921ebc61 *gd1987-03-02s1t03.flac
8e47ffc0bfd14da436ec4ba871591d69 *gd1987-03-02s1t04.flac
0999ddaa4646026a3066742768553053 *gd1987-03-02s1t05.flac
b62c3392b92a93608a22ef0c2cc9413c *gd1987-03-02s1t06.flac
4b8f63e2007ec5d28bea35ef4d062e26 *gd1987-03-02s1t07.flac
2ce0e5ec571b0ee8d110043aa8fa96be *gd1987-03-02s1t08.flac
85b66fa5e292f26bb43897f493e2d629 *gd1987-03-02s2t01.flac
4d006724c58f0de83dcc8eeef15b7ffe *gd1987-03-02s2t02.flac
98426f48cb5881dd71cc0ad9ab817bf7 *gd1987-03-02s2t03.flac
6c341921e8a2e4855e331d69a08fe327 *gd1987-03-02s2t04.flac
4192ea8ea7cabb1b400df75780c5109e *gd1987-03-02s2t05.flac
c205529c8556b4fe5ac751b8c7bd3831 *gd1987-03-02s2t06.flac
242aaa18653ff0e0a0ce1a2325af6611 *gd1987-03-02s2t07.flac
53c90616cf1fdf6c4a07f6ac603971ee *gd1987-03-02s2t08.flac
d28883e4b0df975ca3b4badca0acf205 *gd1987-03-02s2t09.flac
7ee550963bbf864cd0d3a6f6017373c0 *gd1987-03-02s2t10.flac
f6c0c2e580c0442cb776b3c502be5679 *gd1987-03-02s2t11.flac

Comments
Add Comment
Other Sources (comments)
SBD; conversion by Mike... (2) flac16; Recording... (0) flac16; Recording... (0) flac24; AUD: Unknown... (0)
Date User Comment