Browse Collections Artists Sources   Search Dates

Add Show    List Management    Help


Grateful Dead 03/01/87
Henry J. Kaiser Convention Center, Oakland, CA
Comments Add Comment    Source Collectors    Add to Collection    Add to Want List    History
Source # 135409 Other Sources
Entered by Matt Vernon
Checksums flac-md5 , ffp
Disc Counts 0 / 0
Media Size Compressed: 2.07 GB (2223022080 bytes)
Uncompressed: 2.74 GB (2940510562 bytes)
Date Circulated
Date Added
03/20/2016
03/20/2016
Source Summary flac24; AUD: Unknown mics & lead deck > Sony TC-D5M > Maxell MX-Metal 90's. Recording by Jon Bernstein. Transfer: MAC > Nakamichi CR-5A > Edirol FA-66 > Wavelab 2448 > CD-Wave (24bit output) > TLH > FLAC 2448 tagged. Transferred by Andrew F. 03/2016 
  Archive
Source Information - Download Text | Download Zip
GRATEFUL DEAD
Kaiser Convention Center
Oakland CA
03-01-1987

24bit/48kHz file-set

s1t01 Touch of Grey >
s1t02 Little Red Rooster
s1t03 Peggy-O
s1t04 Me & My Uncle >
s1t05 Mexicali Blues
s1t06 When Push Comes to Shove
s1t07 It's All Over Now
s1t08 Row Jimmy >
s1t09 Let it Grow

s2t01 oh is that good!
s2t02 Hell in a Bucket
s2t03 Scarlet Begonias >
s2t04 Fire on the Mountain
s2t05 Samson & Delilah
s2t06 Black Muddy River
s2t07 /He's Gone >
s2t08 Drums >
s2t09 Jam >
s2t10 The Other One >
s2t11 Black Peter >
s2t12 Around & Around >
s2t13 /Good Lovin'
s2t14 Encore: Don't Ease Me In

AUD: Unknown mics & lead deck > Sony TC-D5M > Maxell MX-Metal 90's. Recording by Jon Bernstein.

Transfer: MAC > Nakamichi CR-5A > Edirol FA-66 > Wavelab 2448 > CD-Wave (24bit output) > TLH > FLAC 2448 tagged. Transferred by Andrew F. 03/2016

Note: Thanks to taperchuck for AUD patch material; He's Gone 0:06 > 0:13 and Black Peter 8:32 > 8:43. Four-second tape-flip gap at start of Good Lovin' crossfaded together.

    length     expanded size    cdr  WAVE problems  fmt   ratio  filename
     7:54.240     136581164 B   cxx   --   ---xx   flac  0.7406  gd1987-03-01s1t01.flac
     9:01.147     155850284 B   cxx   --   ---xx   flac  0.7528  gd1987-03-01s1t02.flac
     7:40.653     132668204 B   cxx   --   ---xx   flac  0.7487  gd1987-03-01s1t03.flac
     3:13.293      55668524 B   cxx   --   ---xx   flac  0.7660  gd1987-03-01s1t04.flac
     4:39.387      80463404 B   cxx   --   ---xx   flac  0.7705  gd1987-03-01s1t05.flac
     5:48.173     100273964 B   cxx   --   ---xx   flac  0.7593  gd1987-03-01s1t06.flac
     8:17.013     143139884 B   cxx   --   ---xx   flac  0.7669  gd1987-03-01s1t07.flac
     9:59.973     172792364 B   cxx   --   ---xx   flac  0.7578  gd1987-03-01s1t08.flac
    11:15.289     194483420 B   cxx   --   ---xx   flac  0.7680  gd1987-03-01s1t09.flac
     1:32.053      26511404 B   cxx   --   ---xx   flac  0.6964  gd1987-03-01s2t01.flac
     5:55.147     102282284 B   cxx   --   ---xx   flac  0.7679  gd1987-03-01s2t02.flac
     8:43.373     150731564 B   cxx   --   ---xx   flac  0.7652  gd1987-03-01s2t03.flac
    12:11.480     210666284 B   cxx   --   ---xx   flac  0.7562  gd1987-03-01s2t04.flac
     6:48.627     117684524 B   cxx   --   ---xx   flac  0.7619  gd1987-03-01s2t05.flac
     6:45.253     116713004 B   cxx   --   ---xx   flac  0.7502  gd1987-03-01s2t06.flac
    12:16.320     212060204 B   cxx   --   ---xx   flac  0.7484  gd1987-03-01s2t07.flac
     8:03.347     139203884 B   cxx   --   ---xx   flac  0.7416  gd1987-03-01s2t08.flac
     5:58.373     103211564 B   cxx   --   ---xx   flac  0.7441  gd1987-03-01s2t09.flac
     5:33.787      96130604 B   cxx   --   ---xx   flac  0.7627  gd1987-03-01s2t10.flac
    12:37.187     218069804 B   cxx   --   ---xx   flac  0.7526  gd1987-03-01s2t11.flac
     4:18.173      74353964 B   cxx   --   ---xx   flac  0.7652  gd1987-03-01s2t12.flac
     7:47.867     134745644 B   cxx   --   ---xx   flac  0.7633  gd1987-03-01s2t13.flac
     3:49.946      66224618 B   cxx   --   ---xx   flac  0.7477  gd1987-03-01s2t14.flac
   170:10.103    2940510562 B                            0.7560  (23 files)

No errors occured.



Show Checksums
flac-md5
fc4c9ff0860725cf2880873b16b31b9e *gd1987-03-01s1t01.flac
e218292b4d958809b5e6d5d9adb7e061 *gd1987-03-01s1t02.flac
b42a7f11973b70f89c1ecd2efd2777c7 *gd1987-03-01s1t03.flac
bf7f2f0b5c68602e33f6d2fc50d6c5f4 *gd1987-03-01s1t04.flac
b46dd1c86c7246a9090a5287dbc8742f *gd1987-03-01s1t05.flac
b11bab95099bfa3ca650feb30e9cadd2 *gd1987-03-01s1t06.flac
07d6c4e6b13e9f7a4678d37ad9d024cc *gd1987-03-01s1t07.flac
08f1907b09e60e1846075c606c14a9cd *gd1987-03-01s1t08.flac
32d90f8922e0bffd9d9561762dc84045 *gd1987-03-01s1t09.flac
def4b8b658c0e567c996b472d57f1d1f *gd1987-03-01s2t01.flac
a5e55675841acbe5b9969c7fcce83662 *gd1987-03-01s2t02.flac
a58cf0886cdb3e48d6994d4db56be934 *gd1987-03-01s2t03.flac
863de47e8ce39da769892695366a80c4 *gd1987-03-01s2t04.flac
66c43fa1b1e3a2fe1d3eb7cbde3d621a *gd1987-03-01s2t05.flac
37c9395a20766849b771c5c156dff86e *gd1987-03-01s2t06.flac
5aa9e7413829229410f7725cf5510ae2 *gd1987-03-01s2t07.flac
51fd66d9d165f6db7ddc9154eb2ceeb8 *gd1987-03-01s2t08.flac
56e77fbc9c71087f7a38b991caba0ae1 *gd1987-03-01s2t09.flac
cdc3bed831d305de0b3c55f3f2477f7d *gd1987-03-01s2t10.flac
0d422c95f6f7e84ccc402ae61af6f77c *gd1987-03-01s2t11.flac
9748971500e75d4c0fb46e58431e446a *gd1987-03-01s2t12.flac
81a8f42af38dc61656ad2fd81104d871 *gd1987-03-01s2t13.flac
6e79697d854827e8596d2c7348ff13ed *gd1987-03-01s2t14.flac
ffp
gd1987-03-01s1t01.flac:d06fbefbf6037c0fcea44b226ac25e5f
gd1987-03-01s1t02.flac:658137f9c35e4f881213f22b60c8711a
gd1987-03-01s1t03.flac:5b91dfe0e5e8fa3d279f6400e3200161
gd1987-03-01s1t04.flac:9802b9b0738d9077beba605e1f63a7f5
gd1987-03-01s1t05.flac:692c44c5a25e85db8e50366d6f89fd32
gd1987-03-01s1t06.flac:c6c9a3b522349c97bdf6f0e364c62231
gd1987-03-01s1t07.flac:5fffdfa665c3298e2edf952c9bb75881
gd1987-03-01s1t08.flac:ccbd05dd20210bd351a0e633fdbaa1d4
gd1987-03-01s1t09.flac:c8849660f576792c87cf9235cb26a237
gd1987-03-01s2t01.flac:c422e87207b3a8ce39cce253fbfe33df
gd1987-03-01s2t02.flac:49bb3f4254f35fa5675c808691f40581
gd1987-03-01s2t03.flac:15ef1b9d7e430478efb2950fbbe190a7
gd1987-03-01s2t04.flac:dcac298db5f2c12b9d7ad71c8569324b
gd1987-03-01s2t05.flac:a17baec3d555e146ff41cf20b36d2f57
gd1987-03-01s2t06.flac:6c013b031b5fe6e9feb623676aa22ad8
gd1987-03-01s2t07.flac:0261ef8826fa867fc38f870ee551f37f
gd1987-03-01s2t08.flac:3b1ac9cfd6ce77beb2d5555cbb8c27eb
gd1987-03-01s2t09.flac:e2989033e8aaa2ac3d5eab882540e48b
gd1987-03-01s2t10.flac:f9298a75872df0feb454ce7cb064f823
gd1987-03-01s2t11.flac:2f67463e80ece9e13b87e3ca21257f59
gd1987-03-01s2t12.flac:07dcd17a212901d020e45796cdf0e8e7
gd1987-03-01s2t13.flac:fa891633e2735fd2599c0172dc4ba14d
gd1987-03-01s2t14.flac:45d5b167a3ce76d01fc0e2f68a6af390

Comments
Add Comment
Other Sources (comments)
SBD>MC>DAT>SF>CDR; via Tom... (0) SBD > DAT > CDR > EAC > SHN... (2) Soundboard->Master... (0) flac16; Recording... (0) flac16; AUD: Unknown... (0)
Date User Comment