Browse Collections Artists Sources   Search Dates

Add Show    List Management    Help


Grateful Dead 03/01/87
Henry J. Kaiser Convention Center, Oakland, CA
Comments Add Comment    Source Collectors    Add to Collection    Add to Want List    History
Source # 135410 Other Sources
Entered by Matt Vernon
Checksums ffp , flac-md5
Disc Counts 0 / 0
Media Size Compressed: 1.08 GB (1156108288 bytes)
Uncompressed: 1.68 GB (1801063828 bytes)
Date Circulated
Date Added
03/20/2016
03/20/2016
Source Summary flac16; AUD: Unknown mics & lead deck > Sony TC-D5M > Maxell MX-Metal 90's. Recording by Jon Bernstein. Transfer: MAC > Nakamichi CR-5A > Edirol FA-66 > Wavelab 2448 > CD-Wave (24bit output) > R8Brain > TLH > FLAC 1644 tagged. Transferred by Andrew F. 03/2016 
  Archive
Source Information - Download Text | Download Zip
GRATEFUL DEAD
Kaiser Convention Center
Oakland CA
03-01-1987

16bit/44.1kHz file-set

s1t01 Touch of Grey >
s1t02 Little Red Rooster
s1t03 Peggy-O
s1t04 Me & My Uncle >
s1t05 Mexicali Blues
s1t06 When Push Comes to Shove
s1t07 It's All Over Now
s1t08 Row Jimmy >
s1t09 Let it Grow

s2t01 oh is that good!
s2t02 Hell in a Bucket
s2t03 Scarlet Begonias >
s2t04 Fire on the Mountain
s2t05 Samson & Delilah
s2t06 Black Muddy River
s2t07 /He's Gone >
s2t08 Drums >
s2t09 Jam >
s2t10 The Other One >
s2t11 Black Peter >
s2t12 Around & Around >
s2t13 /Good Lovin'
s2t14 Encore: Don't Ease Me In

AUD: Unknown mics & lead deck > Sony TC-D5M > Maxell MX-Metal 90's. Recording by Jon Bernstein.

Transfer: MAC > Nakamichi CR-5A > Edirol FA-66 > Wavelab 2448 > CD-Wave (24bit output) > R8Brain > TLH > FLAC 1644 tagged. Transferred by Andrew F. 03/2016

Note: Thanks to taperchuck for patch material; He's Gone 0:06 > 0:13 and Black Peter 8:32 > 8:43. Four-second tape-flip gap at start of Good Lovin' crossfaded together.

    length     expanded size    cdr  WAVE problems  fmt   ratio  filename
     7:54.18       83655980 B   ---   --   ---xx   flac  0.6213  gd1987-03-01s1t01.flac
     9:01.11       95458316 B   ---   --   ---xx   flac  0.6363  gd1987-03-01s1t02.flac
     7:40.49       81259292 B   ---   --   ---xx   flac  0.6298  gd1987-03-01s1t03.flac
     3:13.22       34096988 B   ---   --   ---xx   flac  0.6576  gd1987-03-01s1t04.flac
     4:39.29       49283852 B   ---   --   ---xx   flac  0.6648  gd1987-03-01s1t05.flac
     5:48.13       61417820 B   ---   --   ---xx   flac  0.6466  gd1987-03-01s1t06.flac
     8:17.01       87673196 B   ---   --   ---xx   flac  0.6582  gd1987-03-01s1t07.flac
     9:59.73      105835340 B   ---   --   ---xx   flac  0.6432  gd1987-03-01s1t08.flac
    11:15.22      119121788 B   ---   --   ---xx   flac  0.6607  gd1987-03-01s1t09.flac
     1:32.04       16238252 B   ---   --   ---xx   flac  0.5496  gd1987-03-01s2t01.flac
     5:55.11       62647916 B   ---   --   ---xx   flac  0.6616  gd1987-03-01s2t02.flac
     8:43.28       92323100 B   ---   --   ---xx   flac  0.6570  gd1987-03-01s2t03.flac
    12:11.36      129033116 B   ---   --   ---xx   flac  0.6425  gd1987-03-01s2t04.flac
     6:48.47       72081788 B   ---   --   ---xx   flac  0.6516  gd1987-03-01s2t05.flac
     6:45.19       71486732 B   ---   --   ---xx   flac  0.6322  gd1987-03-01s2t06.flac
    12:16.24      129886892 B   ---   --   ---xx   flac  0.6292  gd1987-03-01s2t07.flac
     8:03.26       85262396 B   ---   --   ---xx   flac  0.6185  gd1987-03-01s2t08.flac
     5:58.28       63217100 B   ---   --   ---xx   flac  0.6225  gd1987-03-01s2t09.flac
     5:33.59       58880012 B   ---   --   ---xx   flac  0.6525  gd1987-03-01s2t10.flac
    12:37.14      133567772 B   ---   --   ---xx   flac  0.6359  gd1987-03-01s2t11.flac
     4:18.13       45541820 B   ---   --   ---xx   flac  0.6568  gd1987-03-01s2t12.flac
     7:47.65       82531724 B   ---   --   ---xx   flac  0.6543  gd1987-03-01s2t13.flac
     3:49.71       40562636 B   ---   --   ---xx   flac  0.6314  gd1987-03-01s2t14.flac
   170:10.08     1801063828 B                            0.6419  (23 files)

No errors occured.



Show Checksums
ffp
gd1987-03-01s1t01.flac:6c7c9690feffb4a5c1fceb264e4f692a
gd1987-03-01s1t02.flac:98a3f803fe3355d09a34fa84ca5166ba
gd1987-03-01s1t03.flac:20cbdc25c8aae435e866afa5d2d7dd15
gd1987-03-01s1t04.flac:6e49000a916de4b64ea7935fd2d6c0a2
gd1987-03-01s1t05.flac:6c6e9c161139bcd9d9136cce7d925b44
gd1987-03-01s1t06.flac:44b2930bcf187da74956f55311a12d16
gd1987-03-01s1t07.flac:98c390ecd8e585966771e4f6be16ad41
gd1987-03-01s1t08.flac:e93ae993d2840b2f03cb2f4717d413f3
gd1987-03-01s1t09.flac:b249143b78c2290941730bfc650380e2
gd1987-03-01s2t01.flac:dc3495ee20bbc987f104173e5c1cbf5a
gd1987-03-01s2t02.flac:c36246e0dcc13e8ab1928aaa511e686d
gd1987-03-01s2t03.flac:ad34d471cc2cb3077ce3da743adccfa4
gd1987-03-01s2t04.flac:b88a8aeacd59eeb61b45029ea0acc89e
gd1987-03-01s2t05.flac:92f91e4c8551d318d7b014215f1bb09a
gd1987-03-01s2t06.flac:66e324c75587c34510d5bfb3cd3a0da5
gd1987-03-01s2t07.flac:bf4e231e74dd2589cd533e6c6ce4f3de
gd1987-03-01s2t08.flac:95a30d93d6375ae6265b9b77d7ae43dc
gd1987-03-01s2t09.flac:2186675534b78d3ad817e430fc58a66d
gd1987-03-01s2t10.flac:1c8318c2619dd7c59c30c4bdf7d1f718
gd1987-03-01s2t11.flac:5ea198872eeed68e0c29d048a51185f0
gd1987-03-01s2t12.flac:099a1b6880ec789f317675d843b312c4
gd1987-03-01s2t13.flac:1a2627c965243f75f5c6bca07533acb4
gd1987-03-01s2t14.flac:9f93b580d15115364ff707f537a5547d
flac-md5
f379092d2dbeeb3231407ef68f58f915 *gd1987-03-01s1t01.flac
2c5b1cac50fa9df4d184158f9f09930c *gd1987-03-01s1t02.flac
06396a6f1f492f3a61673e3401e5b495 *gd1987-03-01s1t03.flac
5390a1bf602da6d947ebc1d56769b4fe *gd1987-03-01s1t04.flac
7ddc8dc0f8ed18ceed44bbaf20c267e7 *gd1987-03-01s1t05.flac
9d1065faa6616229610c00b67493b5cb *gd1987-03-01s1t06.flac
7e8792ab8b9d2f072c96113508e92fb0 *gd1987-03-01s1t07.flac
3381d0d1c427226f2eaae89216036cd8 *gd1987-03-01s1t08.flac
0094dd3e8c90c293688ed754f7fc9f28 *gd1987-03-01s1t09.flac
cc2e18571cfa1dcdc1603c8f75f32c8c *gd1987-03-01s2t01.flac
aab2db4ddb5b249315f6c32be78c79a1 *gd1987-03-01s2t02.flac
24fe1f725b393128c851708a8fc35095 *gd1987-03-01s2t03.flac
d32538b606f11cf7343edaab770b94da *gd1987-03-01s2t04.flac
563afe830c62e5481aeb3b3f7697f56c *gd1987-03-01s2t05.flac
2d939b24b50de0f6181477b23bd4f265 *gd1987-03-01s2t06.flac
4b841fd17a8d70ab834d0b296a2793e9 *gd1987-03-01s2t07.flac
b65d89c0a765ce6f55c9a70df37e593b *gd1987-03-01s2t08.flac
6569934fe098137e4e2b715b5f5728ee *gd1987-03-01s2t09.flac
b785b6be31b5ea9ca42f7c417b39b07c *gd1987-03-01s2t10.flac
5e2abb47c19c8f69002c15daecda9268 *gd1987-03-01s2t11.flac
470031bf3d5047a4b1d4f015e288c2f4 *gd1987-03-01s2t12.flac
0a38bb14d324497c794362707eb14746 *gd1987-03-01s2t13.flac
1ec0baa9b3a22c2d52951eb0199c1dd6 *gd1987-03-01s2t14.flac

Comments
Add Comment
Other Sources (comments)
SBD>MC>DAT>SF>CDR; via Tom... (0) SBD > DAT > CDR > EAC > SHN... (2) Soundboard->Master... (0) flac16; Recording... (0) flac24; AUD: Unknown... (0)
Date User Comment