Browse Collections Artists Sources   Search Dates

Add Show    List Management    Help


Grateful Dead 09/17/82
Cumberland County Civic Center, Portland, ME
Comments Add Comment    Source Collectors    Add to Collection    Add to Want List    History
Source # 135445 Other Sources
Entered by Matt Vernon
Checksums flac-md5 , ffp
Disc Counts 0 / 0
Media Size Compressed: 2.05 GB (2201792512 bytes)
Uncompressed: 2.7 GB (2899461036 bytes)
Date Circulated
Date Added
03/28/2016
03/28/2016
Source Summary flac24; AUD: Nakamichi CM300/CP4 shotguns > Sony TC-D5M > Maxell MX-90's, mics set-up on the SBD platform, recording by Brian Schley. Transfer: MAC > Nakamichi CR-5A > Edirol FA-66 > Wavelab 2448 > CD-Wave (24bit output) > TLH > FLAC 2448 tagged. Transferred by Andrew F. 03/2016 
  Archive
Source Information - Download Text | Download Zip
GRATEFUL DEAD
Cumberland County Civic Center
Portland ME
09-17-1982

24bit/48kHz file-set

s1t01 Bertha >
s1t02 Promised Land
s1t03 Candyman >
s1t04 C.C. Rider
s1t05 Althea
s1t06 Me & My Uncle >
s1t07 Big River
s1t08 Dupree's Diamond Blues >
s1t09 It'S All Over Now
s1t10 West L.A. Fade Away
s1t11 Throwing Stones >
s1t12 Deal

s2t01 Touch of Grey >
s2t02 Women are Smarter
s2t03 High Time
s2t04 Estimated Prophet >
s2t05 Eyes of the World >
s2t06 Drums >
s2t07 Space >
s2t08 The Other One >
s2t09 Goin' Down the Road >
s2t10 Morning Dew >
s2t11 Sugar Magnolia
s2t12 Encore: U.S. Blues

AUD: Nakamichi CM300/CP4 shotguns > Sony TC-D5M > Maxell MX-90's,
mics set-up on the SBD platform, recording by Brian Schley.

Transfer: MAC > Nakamichi CR-5A > Edirol FA-66 > Wavelab 2448 >
CD-Wave (24bit output) > TLH > FLAC 2448 tagged. Transferred by
Andrew F. 03/2016

Note: ID-18985 patches; West L.A. 0:00 > 0:08, Drums 4:18 > 6:24.
Thanks Jon Pasternak & Charlie McGuth for organizing this project!

    length     expanded size    cdr  WAVE problems  fmt   ratio  filename
     6:29.027     112039724 B   cxx   --   ---xx   flac  0.7689  gd1982-09-17s1t01.flac
     4:25.813      76554284 B   cxx   --   ---xx   flac  0.7631  gd1982-09-17s1t02.flac
     6:25.773     111102764 B   cxx   --   ---xx   flac  0.7515  gd1982-09-17s1t03.flac
     8:16.920     143113004 B   cxx   --   ---xx   flac  0.7571  gd1982-09-17s1t04.flac
     7:45.147     133962284 B   cxx   --   ---xx   flac  0.7555  gd1982-09-17s1t05.flac
     3:11.480      55146284 B   cxx   --   ---xx   flac  0.7669  gd1982-09-17s1t06.flac
     5:49.547     100669484 B   cxx   --   ---xx   flac  0.7712  gd1982-09-17s1t07.flac
     5:46.227      99713324 B   cxx   --   ---xx   flac  0.7640  gd1982-09-17s1t08.flac
     7:08.347     123363884 B   cxx   --   ---xx   flac  0.7788  gd1982-09-17s1t09.flac
     8:14.760     142490924 B   cxx   --   ---xx   flac  0.7553  gd1982-09-17s1t10.flac
     5:35.320      96572204 B   cxx   --   ---xx   flac  0.7694  gd1982-09-17s1t11.flac
     5:46.926      99914810 B   cxx   --   ---xx   flac  0.7728  gd1982-09-17s1t12.flac
     7:02.587     121705004 B   cxx   --   ---xx   flac  0.7797  gd1982-09-17s2t01.flac
     6:22.267     110092844 B   cxx   --   ---xx   flac  0.7752  gd1982-09-17s2t02.flac
     7:32.067     130195244 B   cxx   --   ---xx   flac  0.7490  gd1982-09-17s2t03.flac
    12:23.573     214149164 B   cxx   --   ---xx   flac  0.7705  gd1982-09-17s2t04.flac
     9:10.787     158626604 B   cxx   --   ---xx   flac  0.7805  gd1982-09-17s2t05.flac
     6:58.213     120445484 B   cxx   --   ---xx   flac  0.7147  gd1982-09-17s2t06.flac
     9:21.720     161775404 B   cxx   --   ---xx   flac  0.7025  gd1982-09-17s2t07.flac
     5:25.000      93600044 B   cxx   --   ---xx   flac  0.7602  gd1982-09-17s2t08.flac
     5:37.267      97132844 B   cxx   --   ---xx   flac  0.7608  gd1982-09-17s2t09.flac
     8:56.000     154368044 B   cxx   --   ---xx   flac  0.7396  gd1982-09-17s2t10.flac
     8:55.440     154206764 B   cxx   --   ---xx   flac  0.7723  gd1982-09-17s2t11.flac
     5:07.363      88520618 B   cxx   --   ---xx   flac  0.7688  gd1982-09-17s2t12.flac
   167:47.569    2899461036 B                            0.7593  (24 files)

No errors occured.



Show Checksums
flac-md5
6cbbfc53e89f58d5fc97dbca17fc268f *gd1982-09-17s1t01.flac
5ae07cb8bbcb20cdcc6e61de05901952 *gd1982-09-17s1t02.flac
4db735bb36a2a7f953549fedfc4ac1ad *gd1982-09-17s1t03.flac
f80cb4ae0bddb102b74b41154ac57f22 *gd1982-09-17s1t04.flac
729d799bc616bb52402f494f14cf418f *gd1982-09-17s1t05.flac
5d450627a1fe133f3c6349747297cb54 *gd1982-09-17s1t06.flac
c6f34444455388eae67c4aa89ae50913 *gd1982-09-17s1t07.flac
9f89df65001622c93dd06cbf1d4438e1 *gd1982-09-17s1t08.flac
0034f39bd42c4038ae0af915d2043cc3 *gd1982-09-17s1t09.flac
2a2f83146f3c794bd11ad685db01daa7 *gd1982-09-17s1t10.flac
fc9752b5767d52bbf5e66b12f75dec6c *gd1982-09-17s1t11.flac
875f504e433501e48164663156423c94 *gd1982-09-17s1t12.flac
3f31b74698f8916cf4e2134e165c913d *gd1982-09-17s2t01.flac
76beb86d28c296a6cea9edb29125f710 *gd1982-09-17s2t02.flac
f13629bcb255cdd6026abb7a9893305d *gd1982-09-17s2t03.flac
7d29b1f2d49cc769cb9ab60cba974f60 *gd1982-09-17s2t04.flac
3ffb5f5111049674f6712994765a7456 *gd1982-09-17s2t05.flac
bb385eca9a10aae170393e2c5895c058 *gd1982-09-17s2t06.flac
b0580948a1f97acc92ed97cf03234ba3 *gd1982-09-17s2t07.flac
51ad23727aa2fa0fb30f0e0e6a55440a *gd1982-09-17s2t08.flac
7d2cfd902580a411e67d16fa5bbb0101 *gd1982-09-17s2t09.flac
ac581a41284903f0ac1bd6d110430d3b *gd1982-09-17s2t10.flac
d5de694e448e504150ba062adc129ab2 *gd1982-09-17s2t11.flac
322dc6287b93be589892181ea8f08914 *gd1982-09-17s2t12.flac
ffp
gd1982-09-17s1t01.flac:5472fd4c9c9c50e79f53793e5e335717
gd1982-09-17s1t02.flac:34b1b04959cc8d10ee7aebdf6e14b137
gd1982-09-17s1t03.flac:de23380812daa191ef466019ff322bda
gd1982-09-17s1t04.flac:d16bfd6620b74505ae3b5add4318b08a
gd1982-09-17s1t05.flac:854ba6162af53c9d56246b12e57145cf
gd1982-09-17s1t06.flac:4e5d68aa9c31844fe99d1bce1ba90fe5
gd1982-09-17s1t07.flac:872fa3f01c81712ced346cf4316f7d46
gd1982-09-17s1t08.flac:afa121f1e79e70799ee5380947a58525
gd1982-09-17s1t09.flac:1955bd49f2157962ed471bf106251461
gd1982-09-17s1t10.flac:35d997f76cf3061e1a51f2ae9acf70d9
gd1982-09-17s1t11.flac:88fe7e0b6130a9fa771fcfcc8ec54720
gd1982-09-17s1t12.flac:eafd7a1fdb95c2bfbab55dd471a78cdf
gd1982-09-17s2t01.flac:be4eb45a02a84ffb8d9791b003ff5133
gd1982-09-17s2t02.flac:2cf0172ea77f729e02bac8dbfdafd0ef
gd1982-09-17s2t03.flac:8898c3b25fe774bda51336a8c2a72d2c
gd1982-09-17s2t04.flac:62e8f12b662ed662ee8d436afbf091bd
gd1982-09-17s2t05.flac:a0116f62af00bff72f12b04c953e8741
gd1982-09-17s2t06.flac:395bc8281d0cceeab830e96fa61ec49e
gd1982-09-17s2t07.flac:3822ddc8c8bb5e72f855afa7f22508b9
gd1982-09-17s2t08.flac:601e7f8f1dade3f99447fddd2f74bff3
gd1982-09-17s2t09.flac:425959893e447e21a66bebac5ff47ee7
gd1982-09-17s2t10.flac:218e24a1ce4085ba210e807b70d7c50f
gd1982-09-17s2t11.flac:846fd9f9289b7c56e287b8e66e91fd78
gd1982-09-17s2t12.flac:4a566a9f34e7bc5fd33613f95587d58e

Comments
Add Comment
Other Sources (comments)
Master FOB Audience... (1) complete; marked sbd (see... (4) partial set 2 SBD>C or... (1) Recording by Mark Cohen... (0) flac16;... (0) DTS Audio 5.1; 4... (0) flac16; SBD + AUD... (1) flac16; AUD: FOB,... (0) flac24; AUD: 3x... (1) flac16; AUD: 3x... (1) flac16; (FOB)... (0) flac24; (FOB)... (0) flac16; lineage:... (1) flac16; AUD:... (0) flac16 44.1khz ... (0) flac24 48khz ... (0) flac16/48kHz; Source... (0) flac24; Source Info:... (0)
Date User Comment