Browse Collections Artists Sources   Search Dates

Add Show    List Management    Help


Grateful Dead 04/15/83
Community War Memorial Auditorium, Rochester, NY
Comments Add Comment    Source Collectors    Add to Collection    Add to Want List    History
Source # 135460 Other Sources
Entered by Matt Vernon
Checksums ffp , flac-md5
Disc Counts 0 / 0
Media Size Compressed: 1.05 GB (1126047744 bytes)
Uncompressed: 1.7 GB (1821559156 bytes)
Date Circulated
Date Added
04/03/2016
04/03/2016
Source Summary flac16; AUD: Nakamichi CM300/CP4 shotguns > Sony TC-D5M > Maxell XLII (Set 1 + JBG & Baby Blue), Hitachi ME-Metal (Set 2 thru A&A), FOB recording by Brian Schley. Transfer: MAC > Nakamichi CR-5A > Edirol FA-66 > Wavelab 2448 > R8Brain SRC > Wavelab (adding 16-bit patches) > CD-Wave > TLH > FLAC 1644 tagged. Transferred by Andrew F. 04/2016 
  Archive
Source Information - Download Text | Download Zip
GRATEFUL DEAD
Community War Memorial Auditorium
Rochester NY
04-15-1983

s1t01 crowd
s1t02 Shakedown Street
s1t03 Brother Esau
s1t04 Brown Eyed Women
s1t05 Little Red Rooster
s1t06 Dire Wolf
s1t07 Lazy Lightnin' > Supplication >
s1t08 Deal

s2t01 crowd
s2t02 Feel Like a Stranger
s2t03 Samson & Delilah
s2t04 Ship of Fools
s2t05 Maybe You Know
s2t06 He's Gone >
s2t07 Little Star >
s2t08 Drums >
s2t09 Space >
s2t10 Throwing Stones >
s2t11 Not Fade Away >
s2t12 Goin' Down the Road >
s2t13 Around & Around >
s2t14 Johnny B. Goode
s2t15 Encore: It's All Over Now Baby Blue

AUD: Nakamichi CM300/CP4 shotguns > Sony TC-D5M > Maxell XLII
(Set 1 + JBG & Baby Blue), Hitachi ME-Metal (Set 2 thru A&A),
FOB recording by Brian Schley.

Transfer: MAC > Nakamichi CR-5A > Edirol FA-66 > Wavelab 2448 >
R8Brain SRC > Wavelab (adding 16-bit patches) > CD-Wave > TLH >
FLAC 1644 tagged. Transferred by Andrew F. 04/2016

Note: Re-mixed ID-9974 patches; Little Star 0:33 > 0:38, Drums
0:03 > Space 0:53, Around & Around 3:41 > Johnny B. Goode 0:04.
Thanks Jon Pasternak & Charlie McGuth for organizing this project!

    length     expanded size    cdr  WAVE problems  fmt   ratio  filename
     2:44.46       29037836 B   ---   --   ---xx   flac  0.5205  gd1983-04-15s1t01.flac
    14:08.17      149627228 B   ---   --   ---xx   flac  0.6253  gd1983-04-15s1t02.flac
     7:09.51       75795596 B   ---   --   ---xx   flac  0.6012  gd1983-04-15s1t03.flac
     6:47.01       71797196 B   ---   --   ---xx   flac  0.5987  gd1983-04-15s1t04.flac
     9:51.07      104268908 B   ---   --   ---xx   flac  0.6173  gd1983-04-15s1t05.flac
     4:22.38       46306220 B   ---   --   ---xx   flac  0.5899  gd1983-04-15s1t06.flac
    10:24.12      110101868 B   ---   --   ---xx   flac  0.6489  gd1983-04-15s1t07.flac
     7:46.56       82334156 B   ---   --   ---xx   flac  0.6413  gd1983-04-15s1t08.flac
     1:02.57       11070908 B   ---   --   ---xx   flac  0.5911  gd1983-04-15s2t01.flac
     9:28.65      100348124 B   ---   --   ---xx   flac  0.6634  gd1983-04-15s2t02.flac
     9:36.34      101686412 B   ---   --   ---xx   flac  0.6444  gd1983-04-15s2t03.flac
     8:43.14       92290172 B   ---   --   ---xx   flac  0.5992  gd1983-04-15s2t04.flac
     4:57.70       52555484 B   ---   --   ---xx   flac  0.6826  gd1983-04-15s2t05.flac
    12:37.14      133567772 B   ---   --   ---xx   flac  0.6003  gd1983-04-15s2t06.flac
     6:32.10       69172364 B   ---   --   ---xx   flac  0.6299  gd1983-04-15s2t07.flac
     5:59.09       63348812 B   ---   --   ---xx   flac  0.5895  gd1983-04-15s2t08.flac
    12:07.38      128332220 B   ---   --   ---xx   flac  0.5432  gd1983-04-15s2t09.flac
     9:40.40      102406124 B   ---   --   ---xx   flac  0.6318  gd1983-04-15s2t10.flac
     6:01.55       63809804 B   ---   --   ---xx   flac  0.6518  gd1983-04-15s2t11.flac
     6:52.55       72806204 B   ---   --   ---xx   flac  0.6623  gd1983-04-15s2t12.flac
     3:42.24       39217292 B   ---   --   ---xx   flac  0.6298  gd1983-04-15s2t13.flac
     4:16.27       45221948 B   ---   --   ---xx   flac  0.6016  gd1983-04-15s2t14.flac
     7:13.32       76456508 B   ---   --   ---xx   flac  0.5988  gd1983-04-15s2t15.flac
   172:06.22     1821559156 B                            0.6181  (23 files)

No errors occured.



Show Checksums
ffp
gd1983-04-15s1t01.flac:9479396d6b09059f4974e295e038f417
gd1983-04-15s1t02.flac:f63eff15dc7da4ccdf780c0ff15a7e57
gd1983-04-15s1t03.flac:449e76caa88708104c1c2df2fe144da9
gd1983-04-15s1t04.flac:e4856f040562be19b54c4fef2517287b
gd1983-04-15s1t05.flac:58323d7ba14ab86474d3d9c140b3840b
gd1983-04-15s1t06.flac:01629026dd994287582b75e41289e686
gd1983-04-15s1t07.flac:75ee4fced51338e5573e67777757edc2
gd1983-04-15s1t08.flac:c0e8849860b6282d6e6a4c1e492fe862
gd1983-04-15s2t01.flac:e4e0e505eea93d7bf1a61d1d6e21ae04
gd1983-04-15s2t02.flac:c3fde8ba8ecd053f79cb2845d0820f20
gd1983-04-15s2t03.flac:a06c15c87346f61112b3bf16bbb174c6
gd1983-04-15s2t04.flac:f3448d0694b9b5d3bb472035d416ea74
gd1983-04-15s2t05.flac:0698111bb1f080c23c206abfcda6ec97
gd1983-04-15s2t06.flac:e087041adbd6a38484c3c356f979bed9
gd1983-04-15s2t07.flac:932d54f1e43d5f1662ab0c6e07bf454a
gd1983-04-15s2t08.flac:998d949bc074a73fc34e91ad93840666
gd1983-04-15s2t09.flac:930eeb855fa652cedd180010fde363bf
gd1983-04-15s2t10.flac:aac7a7744db3479524bcf50dc73af00e
gd1983-04-15s2t11.flac:e4cf24ad038a42fc84d7e9490e490d59
gd1983-04-15s2t12.flac:9f1953642ffb71a34a581910e72e63b3
gd1983-04-15s2t13.flac:68835ce93f16aad75c239faf5c26f63f
gd1983-04-15s2t14.flac:61e84bbb17c2bfe003b5eac4eccc1ff0
gd1983-04-15s2t15.flac:4323a35ebadbba7f8877edb1df89e2b3
flac-md5
264220f48a56d3673580240af4e86118 *gd1983-04-15s1t01.flac
116140d67fc229914b661b6d00f53d6b *gd1983-04-15s1t02.flac
c8fce620113129ab09448e606cb64f64 *gd1983-04-15s1t03.flac
33c9c91bce47a15ebaf86ee2594bac91 *gd1983-04-15s1t04.flac
308c90d9605006d5f5a1385db1bc21f4 *gd1983-04-15s1t05.flac
dde58c35c8446e5715bbe4791b68719d *gd1983-04-15s1t06.flac
37c913e50a55c739a3e7ce82a09efd9c *gd1983-04-15s1t07.flac
eb4bfa74344a6a6c129c33855f0b6678 *gd1983-04-15s1t08.flac
b93e02e28d1ce6423c770b12540233f7 *gd1983-04-15s2t01.flac
664620540d34f4e28fc2bcc2a9208e05 *gd1983-04-15s2t02.flac
4a14862d18d88bffb32cb1f9ebf152c4 *gd1983-04-15s2t03.flac
a6f211f7df50bdda2bcf84910faa8d63 *gd1983-04-15s2t04.flac
573d6a7f627d193e7cfa42eb987b41d4 *gd1983-04-15s2t05.flac
b675e2c18bce636daddb962376610a68 *gd1983-04-15s2t06.flac
a8424a11729bb0223ed2d99e1dafdc54 *gd1983-04-15s2t07.flac
7aa26b9220ee2110460e3d6fc3f21129 *gd1983-04-15s2t08.flac
514871ba6e0a76224c7a10922f9488ec *gd1983-04-15s2t09.flac
77927a263a39a58b40e1f05c65337c4d *gd1983-04-15s2t10.flac
cb806d413e626459bcf89fe7c6c3ef2c *gd1983-04-15s2t11.flac
06bdd581dfdf0c5b60c37a91e0de7e54 *gd1983-04-15s2t12.flac
51a7c3e2331d5584bfd5015d51ed5bed *gd1983-04-15s2t13.flac
2c99beb2439455e885c4c5a8b15e0453 *gd1983-04-15s2t14.flac
c9ec9fc110fba8d19f599bb3a198eba2 *gd1983-04-15s2t15.flac

Comments
Add Comment
Other Sources (comments)
Senn. 421?s > MC>DAT>CD;... (0) 2nd set; SBD>PCM>DAT>Sonic... (1) (FOB) Audio Technica Mics... (0) Recording Info: Set 1: SBD... (0) flac16; Recording... (0) flac24; Recording... (0) flac16;... (0) flac16;Recording... (0) flac24; Recording... (0) flac16; 2 source... (0) flac16; Set 2... (0) flac16; aud cassette... (0) flac24; aud cassette... (0) flac24; source:... (0) flac16/44.1 ... (0) flac24/48 ... (0) flac16/44.1 ... (0) flac24/48 ... (0) flac24; Recording... (0)
Date User Comment