Browse Collections Artists Sources   Search Dates

Add Show    List Management    Help


Grateful Dead 07/10/81
St. Paul Civic Center, St. Paul, MN
Comments Add Comment    Source Collectors    Add to Collection    Add to Want List    History
Source # 135490 Other Sources
Entered by Matt Vernon
Checksums ffp , flac-md5
Disc Counts 0 / 0
Media Size Compressed: 1.11 GB (1194479616 bytes)
Uncompressed: 1.79 GB (1918330064 bytes)
Date Circulated
Date Added
04/10/2016
04/10/2016
Source Summary flac16; AUD: Unknown mics & lead deck > Sony TC-D5 > Maxell XLII-S 90's. Recording by Jon Bernstein. Transfer: MAC > Nakamichi CR-5A > Edirol FA-66 > Wavelab 2448 > R8Brain SRC > Wavelab (adding 16-bit patches) > CD-Wave > TLH > FLAC 1644 tagged. Transferred by Andrew F. 04/2016 
  Archive
Source Information - Download Text | Download Zip
GRATEFUL DEAD
Civic Center Arena
Saint Paul MN
07-10-1981

s1t01 crowd
s1t02 Jack Straw
s1t03 Sugaree
s1t04 Mama Tried >
s1t05 Mexicali Blues
s1t06 Loser
s1t07 keyboard problems
s1t08 Cassidy
s1t09 Brown Eyed Women >
s1t10 C.C. Rider
s1t11 Ramble on Rose
s1t12 Let it Grow >
s1t13 Don't Ease Me In

s2t01 Samson & Delilah
s2t02 Althea
s2t03 crowd
s2t04 Estimated Prophet >
s2t05 Eyes of the World > Jam >
s2t06 Drums >
s2t07 Space >
s2t08 Uncle John's Band >
s2t09 Playin' in the Band >
s2t10 China Doll >
s2t11 Uncle John's Band Reprise >
s2t12 Playin' in the Band Reprise >
s2t13 Around & Around >
s2t14 Good Lovin'
s2t15 Encore: Casey Jones

AUD: Unknown mics & lead deck > Sony TC-D5 > Maxell XLII-S 90's.
Recording by Jon Bernstein.

Transfer: MAC > Nakamichi CR-5A > Edirol FA-66 > Wavelab 2448 >
R8Brain SRC > Wavelab (adding 16-bit patches) > CD-Wave > TLH >
FLAC 1644 tagged. Transferred by Andrew F. 04/2016

Note: P.A. static and fireworks audible in Samson. Patches from
ID-14195; Brown Eyed Women 0:00 > 0:08, and Drums 3:36 > 8:28.

    length     expanded size    cdr  WAVE problems  fmt   ratio  filename
     0:44.29        7829852 B   ---   --   ---xx   flac  0.5617  gd1981-07-10s1t01.flac
     6:09.03       65098700 B   ---   --   ---xx   flac  0.6351  gd1981-07-10s1t02.flac
    12:22.45      130994684 B   ---   --   ---xx   flac  0.6232  gd1981-07-10s1t03.flac
     2:32.02       26817548 B   ---   --   ---xx   flac  0.6364  gd1981-07-10s1t04.flac
     5:05.17       53842028 B   ---   --   ---xx   flac  0.6329  gd1981-07-10s1t05.flac
     7:16.14       76943372 B   ---   --   ---xx   flac  0.6245  gd1981-07-10s1t06.flac
     1:59.16       21029276 B   ---   --   ---xx   flac  0.5711  gd1981-07-10s1t07.flac
     4:54.44       51965132 B   ---   --   ---xx   flac  0.6456  gd1981-07-10s1t08.flac
     5:39.02       59804348 B   ---   --   ---xx   flac  0.6285  gd1981-07-10s1t09.flac
     8:04.14       85410572 B   ---   --   ---xx   flac  0.6286  gd1981-07-10s1t10.flac
     8:43.08       92276060 B   ---   --   ---xx   flac  0.6143  gd1981-07-10s1t11.flac
    11:55.50      126243644 B   ---   --   ---xx   flac  0.6342  gd1981-07-10s1t12.flac
     3:29.17       36907628 B   ---   --   ---xx   flac  0.6432  gd1981-07-10s1t13.flac
     7:15.05       76745804 B   ---   --   ---xx   flac  0.6371  gd1981-07-10s2t01.flac
     8:58.08       94922060 B   ---   --   ---xx   flac  0.6196  gd1981-07-10s2t02.flac
     1:28.09       15544412 B   ---   --   ---xx   flac  0.5481  gd1981-07-10s2t03.flac
    10:49.56      114615356 B   ---   --   ---xx   flac  0.6288  gd1981-07-10s2t04.flac
    15:01.37      159023468 B   ---   --   ---xx   flac  0.6374  gd1981-07-10s2t05.flac
    11:36.68      122934380 B   ---   --   ---xx   flac  0.5961  gd1981-07-10s2t06.flac
     5:58.58       63287660 B   ---   --   ---xx   flac  0.5492  gd1981-07-10s2t07.flac
     7:32.59       79871612 B   ---   --   ---xx   flac  0.6308  gd1981-07-10s2t08.flac
     6:41.67       70894028 B   ---   --   ---xx   flac  0.6264  gd1981-07-10s2t09.flac
     5:43.37       60592268 B   ---   --   ---xx   flac  0.5815  gd1981-07-10s2t10.flac
     1:06.47       11752988 B   ---   --   ---xx   flac  0.6344  gd1981-07-10s2t11.flac
     2:36.31       27591356 B   ---   --   ---xx   flac  0.6383  gd1981-07-10s2t12.flac
     3:52.29       40993052 B   ---   --   ---xx   flac  0.6296  gd1981-07-10s2t13.flac
     7:46.24       82258892 B   ---   --   ---xx   flac  0.6443  gd1981-07-10s2t14.flac
     5:52.20       62139884 B   ---   --   ---xx   flac  0.6259  gd1981-07-10s2t15.flac
   181:14.66     1918330064 B                            0.6226  (28 files)

No errors occured.



Show Checksums
ffp
gd1981-07-10s1t01.flac:2a2841704502003dc2c267a78b04b0bc
gd1981-07-10s1t02.flac:b0a212c9131c8cd35a958caff3f0b584
gd1981-07-10s1t03.flac:a45db08a2b2c035662047afcbc8fc734
gd1981-07-10s1t04.flac:ee18cd4192ca9e1e8b7ad6f5ba7f2436
gd1981-07-10s1t05.flac:87286d4b4bc2029dca30242f39a22a65
gd1981-07-10s1t06.flac:96ff94384e74841a4b38c29aa5bb6bfc
gd1981-07-10s1t07.flac:e00ecdde55214a26a42401f036f4288d
gd1981-07-10s1t08.flac:d52aee0750aa5924e607d66327114801
gd1981-07-10s1t09.flac:4383ea58f31f3bcf5216ab494755c3fc
gd1981-07-10s1t10.flac:94bf2222b613a91a7055719931c2e70d
gd1981-07-10s1t11.flac:9569468720040b0bbea6e165fb636e1d
gd1981-07-10s1t12.flac:634a893c1b7311ee341ebe2662daf8c2
gd1981-07-10s1t13.flac:4bf44be6064de15f5e330067bae12b83
gd1981-07-10s2t01.flac:5836b84e7d6f79c9e086184b64aa1a3a
gd1981-07-10s2t02.flac:1fe01c6735ee55afb2b987d8ed54c10b
gd1981-07-10s2t03.flac:40e98455269a35f97ade36beada0ae86
gd1981-07-10s2t04.flac:a533176ed474fdaf7619e2452ba38dea
gd1981-07-10s2t05.flac:0b1068bc3113061febb459d5adda8f41
gd1981-07-10s2t06.flac:29d4c925f8a3dc5bf14057dfde8306dc
gd1981-07-10s2t07.flac:824a3caa5f9f6a3d5d429960684d1049
gd1981-07-10s2t08.flac:dfced101076da62040161f6d01a31fc4
gd1981-07-10s2t09.flac:7c1b590dd636c1529428524b382a782b
gd1981-07-10s2t10.flac:5e6ed713624c5e2b5908c8282c756259
gd1981-07-10s2t11.flac:a5bcaf3d61e5076a0860e4ebc99e1444
gd1981-07-10s2t12.flac:d11a37c33b23ce55fa4268276d1c98ea
gd1981-07-10s2t13.flac:cdf29020a4978b5739ec5c4d5a9cc20f
gd1981-07-10s2t14.flac:d090794b74206656c50b754be32e7bcb
gd1981-07-10s2t15.flac:af59ae3f05cc418222158b4ebcda6697
flac-md5
8b131262de117ec518cad6cd5abbc959 *gd1981-07-10s1t01.flac
83a3265bb6e139508e3ccd85bc211052 *gd1981-07-10s1t02.flac
1a16a82bb7310c2d69042abaad975b23 *gd1981-07-10s1t03.flac
4490ee188860cefdeb02f4167913a295 *gd1981-07-10s1t04.flac
baa2dcea7029edd60a098daa4bef361f *gd1981-07-10s1t05.flac
26597ce5ba4352b02329e2ed136cd002 *gd1981-07-10s1t06.flac
16b6ca3b0c94a9a23b4ded36bcfe16a2 *gd1981-07-10s1t07.flac
805cc5f0c015ba0f35f1be460444f44c *gd1981-07-10s1t08.flac
7c371025f0234b1a8204879293627824 *gd1981-07-10s1t09.flac
8fd2692e24d4b521ecc204f91b8ed473 *gd1981-07-10s1t10.flac
9ca3a97e7ce659ee1be5beef82eda8c3 *gd1981-07-10s1t11.flac
fa0cad25cefeadd9e9d1fb8bc04b9650 *gd1981-07-10s1t12.flac
33e93a2547e14762f2b174b5a617a303 *gd1981-07-10s1t13.flac
d8a8ca66a16d90ed641a28fd61e6049b *gd1981-07-10s2t01.flac
5413b617e890ea003cefab56bf60b8a4 *gd1981-07-10s2t02.flac
df5a946b100999756d758a22b97b34f8 *gd1981-07-10s2t03.flac
cc64a6dac93e5ca8769a55c4bcbdda93 *gd1981-07-10s2t04.flac
e76c428703483061d0ece1efbb90372c *gd1981-07-10s2t05.flac
0cc088e60ce948848d6f6bfd5ba763f4 *gd1981-07-10s2t06.flac
3f6bd9eee41b948ebfd396700b4385d1 *gd1981-07-10s2t07.flac
b6c19f86feccfa48e14bf9c7a384d4ce *gd1981-07-10s2t08.flac
16c7458cc287a45247d9f915190073b7 *gd1981-07-10s2t09.flac
23dd0596e6dc0bf1da79bef24e4b0140 *gd1981-07-10s2t10.flac
2ae77a94e546f39c23583693289f9b6c *gd1981-07-10s2t11.flac
1e6e8508fceeb536cf630b6babc7564c *gd1981-07-10s2t12.flac
b0ec7147229b9ccd849005d1f8417308 *gd1981-07-10s2t13.flac
2b9b1d6a43217d0f81fe9c34ff61e6e8 *gd1981-07-10s2t14.flac
a95c546777eab34e6440bfa46ac3a063 *gd1981-07-10s2t15.flac

Comments
Add Comment
Other Sources (comments)
Originally mislabeled as... (0) Recording by Ohr Weinberg.... (2) flac16; Recording... (0) flac24; 2nd Set AUD:... (0) flac16; 2nd Set AUD:... (0) flac16/48kHz;... (0)
Date User Comment