Browse Collections Artists Sources   Search Dates

Add Show    List Management    Help


Grateful Dead 08/16/81
McArthur Court, U of Oregon, Eugene, OR
Comments Add Comment    Source Collectors    Add to Collection    Add to Want List    History
Source # 135516 Other Sources
Entered by Matt Vernon
Checksums ffp , flac-md5
Disc Counts 0 / 0
Media Size Compressed: 1.82 GB (1950466048 bytes)
Uncompressed: 2.46 GB (2636174898 bytes)
Date Circulated
Date Added
04/17/2016
04/17/2016
Source Summary flac24; AUD: Nakamichi CM300/CP4 shotguns > lead Sony D5 > Sony TC-D5M > Maxell MX-90's, FOB recording by Brian Schley. Transfer: MAC > Nakamichi CR-5A > Edirol FA-66 > Wavelab 2448 > CD-Wave (24bit output) > TLH > FLAC 2448 tagged. Transferred by Andrew F. 04/2016 
  Archive
Source Information - Download Text | Download Zip
GRATEFUL DEAD
McArthur Court
University of Oregon
Eugene OR
08-16-1981

24bit/48kHz file-set

s1t01 crowd
s1t02 Jack Straw
s1t03 Friend of the Devil >
s1t04 El Paso
s1t05 Loser
s1t06 Minglewood Blues
s1t07 Peggy-O >
s1t08 Little Red Rooster
s1t09 Deal

s2t01 Feel Like a Stranger
s2t02 Scarlet Begonias >
s2t03 Fire on the Mountain
s2t04 Estimated Prophet >
s2t05 Eyes of the World > Jam >
s2t06 Drums with the Thunder Machine >
s2t07 Space >
s2t08 The Other One >
s2t09 Stella Blue >
s2t10 Around & Around >
s2t11 Good Lovin'
s2t12 Encore: It's All Over Now Baby Blue

AUD: Nakamichi CM300/CP4 shotguns > lead Sony D5 > Sony TC-D5M >
Maxell MX-90's, FOB recording by Brian Schley.

Transfer: MAC > Nakamichi CR-5A > Edirol FA-66 > Wavelab 2448 >
CD-Wave (24bit output) > TLH > FLAC 2448 tagged. Transferred by
Andrew F. 04/2016

Note: 1st Set of 9381/94900 source is a copy of this master tape.
2nd Set matches this recording, but derives from a different deck
in the line. Small cuts at start of Loser, Minglewood and Rooster.
ID-94900 patches in Drums 1:40 > 1:56 and Drums 8:19 > Space 0:09.
Thanks Jon Pasternak & Charlie McGuth for organizing this project!

    length     expanded size    cdr  WAVE problems  fmt   ratio  filename
     1:03.293      18228524 B   cxx   --   ---xx   flac  0.7184  gd1981-08-16s1t01.flac
     5:39.560      97793324 B   cxx   --   ---xx   flac  0.7626  gd1981-08-16s1t02.flac
     9:10.347     158499884 B   cxx   --   ---xx   flac  0.7450  gd1981-08-16s1t03.flac
     5:46.960      99924524 B   cxx   --   ---xx   flac  0.7390  gd1981-08-16s1t04.flac
     7:24.533     128025644 B   cxx   --   ---xx   flac  0.7460  gd1981-08-16s1t05.flac
     6:32.827     113134124 B   cxx   --   ---xx   flac  0.7588  gd1981-08-16s1t06.flac
     6:27.227     111521324 B   cxx   --   ---xx   flac  0.7409  gd1981-08-16s1t07.flac
     8:09.080     140855084 B   cxx   --   ---xx   flac  0.7457  gd1981-08-16s1t08.flac
     7:03.462     121956974 B   cxx   --   ---xx   flac  0.7611  gd1981-08-16s1t09.flac
     7:25.147     128202284 B   cxx   --   ---xx   flac  0.7598  gd1981-08-16s2t01.flac
     9:58.693     172423724 B   cxx   --   ---xx   flac  0.7423  gd1981-08-16s2t02.flac
     8:49.400     152467244 B   cxx   --   ---xx   flac  0.7437  gd1981-08-16s2t03.flac
     9:53.960     171060524 B   cxx   --   ---xx   flac  0.7389  gd1981-08-16s2t04.flac
     8:04.840     139633964 B   cxx   --   ---xx   flac  0.7510  gd1981-08-16s2t05.flac
    10:21.533     179001644 B   cxx   --   ---xx   flac  0.7104  gd1981-08-16s2t06.flac
     5:31.640      95512364 B   cxx   --   ---xx   flac  0.6859  gd1981-08-16s2t07.flac
     6:41.893     115745324 B   cxx   --   ---xx   flac  0.7451  gd1981-08-16s2t08.flac
     9:42.547     167773484 B   cxx   --   ---xx   flac  0.7062  gd1981-08-16s2t09.flac
     3:42.253      64009004 B   cxx   --   ---xx   flac  0.7536  gd1981-08-16s2t10.flac
     7:34.720     130959404 B   cxx   --   ---xx   flac  0.7539  gd1981-08-16s2t11.flac
     7:29.467     129446528 B   cxx   --   ---xx   flac  0.7243  gd1981-08-16s2t12.flac
   152:33.382    2636174898 B                            0.7396  (21 files)

No errors occured.



Show Checksums
ffp
gd1981-08-16s1t01.flac:0a2804bb5d6493398dfe764978e0af66
gd1981-08-16s1t02.flac:02ef3aae30442d1d7b42c7b4eb50d4b2
gd1981-08-16s1t03.flac:5282e79c93759d1d820b4253b3c8e0e6
gd1981-08-16s1t04.flac:f46fc8513da3e32abd2ee13965e50704
gd1981-08-16s1t05.flac:5ad082d0a04d1326278f170f8df35b49
gd1981-08-16s1t06.flac:4de49567241f4d58ed0c2b0a1f415156
gd1981-08-16s1t07.flac:86cc4137e11a4d966440251ac6698078
gd1981-08-16s1t08.flac:1c53459c73c2a680218eb8db9a4115c5
gd1981-08-16s1t09.flac:7784538a25bbccdce887602e852cb6d7
gd1981-08-16s2t01.flac:c3877c57cc9e293b93b29a1b00b149ef
gd1981-08-16s2t02.flac:3e60dd7be6797793b55ef39ef130953c
gd1981-08-16s2t03.flac:58f740a7a626f85eb308dd650c3809a4
gd1981-08-16s2t04.flac:eeef48feed7f2b4562ec92051b72c2dc
gd1981-08-16s2t05.flac:081c4a2f97d7b395a959fcdf02ba48b4
gd1981-08-16s2t06.flac:145de2a3f98af5aba26be08df982ba47
gd1981-08-16s2t07.flac:90a4196066e9af30eead29fc2b91e817
gd1981-08-16s2t08.flac:20bd3a85311f960f79713cfa1b0e7e00
gd1981-08-16s2t09.flac:dd22b4be0d1e425b0895872834327326
gd1981-08-16s2t10.flac:4b9f6ed7953de40d5ca94d78e0c99a29
gd1981-08-16s2t11.flac:c8a03038bf0a699e020a637c66b39561
gd1981-08-16s2t12.flac:8fa346abada2fe88124091f6a0355a53
flac-md5
f6e4a66a69f4a2ccb38d240c67329550 *gd1981-08-16s1t01.flac
e1c06236f9880f5064ece2334e432cc8 *gd1981-08-16s1t02.flac
971d6c6b1353470a291a7b54195a89c6 *gd1981-08-16s1t03.flac
7991157c33e330e4eb27d3daacedfcfe *gd1981-08-16s1t04.flac
afeb1b4d3bf42e5fe94caf4a641ed207 *gd1981-08-16s1t05.flac
8428a37a6120b85ac0277b3531213acb *gd1981-08-16s1t06.flac
2b3af6d299255ae1d7b1a0b00236b8af *gd1981-08-16s1t07.flac
1b7e890740031ba4bcdbbf665acc10a0 *gd1981-08-16s1t08.flac
50034f0e7f0fd0657c011bc68852b573 *gd1981-08-16s1t09.flac
ff92d5e0eb3805aebc40c5db002b787b *gd1981-08-16s2t01.flac
102d5a96c0180bac77aa297f6ca8b836 *gd1981-08-16s2t02.flac
5dd92e305f6fb76cec9f2d9a48771abf *gd1981-08-16s2t03.flac
03e10ad2918ff04a363beb5a73f74a9f *gd1981-08-16s2t04.flac
419cb80b38c187c587ff82074664a7e6 *gd1981-08-16s2t05.flac
11ef63015056d873d824497997ae7be8 *gd1981-08-16s2t06.flac
9f0cf7a37f14ce938df14c95c31f7dba *gd1981-08-16s2t07.flac
a72d9be8e6c8893d2c212664df5c8eb1 *gd1981-08-16s2t08.flac
c369d822c319c1037e310fec4ac70f03 *gd1981-08-16s2t09.flac
fbcf816714953dfb1a6b66d7119a4f34 *gd1981-08-16s2t10.flac
de3af8fdbb9745d62e5aad9b730ada4c *gd1981-08-16s2t11.flac
c126e0334881cc5aecdfb5480b351690 *gd1981-08-16s2t12.flac

Comments
Add Comment
Other Sources (comments)
Recording by Jim Vita.... (1) flac16; SBD > ? >... (1) flac16; Recording... (0) flac16; AUD:... (0)
Date User Comment