Browse Collections Artists Sources   Search Dates

Add Show    List Management    Help


Grateful Dead 08/16/81
McArthur Court, U of Oregon, Eugene, OR
Comments Add Comment    Source Collectors    Add to Collection    Add to Want List    History
Source # 135517 Other Sources
Entered by Matt Vernon
Checksums flac-md5 , ffp
Disc Counts 0 / 0
Media Size Compressed: 954.42 MB (1000783872 bytes)
Uncompressed: 1.5 GB (1614660684 bytes)
Date Circulated
Date Added
04/17/2016
04/17/2016
Source Summary flac16; AUD: Nakamichi CM300/CP4 shotguns > lead Sony D5 > Sony TC-D5M > Maxell MX-90's, FOB recording by Brian Schley. Transfer: MAC > Nakamichi CR-5A > Edirol FA-66 > Wavelab 2448 > CD-Wave (24bit output) > R8Brain > TLH > FLAC 1644 tagged. Transferred by Andrew F. 04/2016 
  Archive
Source Information - Download Text | Download Zip
GRATEFUL DEAD
McArthur Court
University of Oregon
Eugene OR
08-16-1981

16bit/44.1kHz file-set

s1t01 crowd
s1t02 Jack Straw
s1t03 Friend of the Devil >
s1t04 El Paso
s1t05 Loser
s1t06 Minglewood Blues
s1t07 Peggy-O >
s1t08 Little Red Rooster
s1t09 Deal

s2t01 Feel Like a Stranger
s2t02 Scarlet Begonias >
s2t03 Fire on the Mountain
s2t04 Estimated Prophet >
s2t05 Eyes of the World > Jam >
s2t06 Drums with the Thunder Machine >
s2t07 Space >
s2t08 The Other One >
s2t09 Stella Blue >
s2t10 Around & Around >
s2t11 Good Lovin'
s2t12 Encore: It's All Over Now Baby Blue

AUD: Nakamichi CM300/CP4 shotguns > lead Sony D5 > Sony TC-D5M >
Maxell MX-90's, FOB recording by Brian Schley.

Transfer: MAC > Nakamichi CR-5A > Edirol FA-66 > Wavelab 2448 >
CD-Wave (24bit output) > R8Brain > TLH > FLAC 1644 tagged.
Transferred by Andrew F. 04/2016

Note: 1st Set of 9381/94900 source is a copy of this master tape.
2nd Set matches this recording, but derives from a different deck
in the line. Small cuts at start of Loser, Minglewood and Rooster.
ID-94900 patches in Drums 1:40 > 1:56 and Drums 8:19 > Space 0:09.
Thanks Jon Pasternak & Charlie McGuth for organizing this project!

    length     expanded size    cdr  WAVE problems  fmt   ratio  filename
     1:03.22       11164988 B   ---   --   ---xx   flac  0.5915  gd1981-08-16s1t01.flac
     5:39.42       59898428 B   ---   --   ---xx   flac  0.6568  gd1981-08-16s1t02.flac
     9:10.26       97081196 B   ---   --   ---xx   flac  0.6281  gd1981-08-16s1t03.flac
     5:46.72       61203788 B   ---   --   ---xx   flac  0.6191  gd1981-08-16s1t04.flac
     7:24.40       78415724 B   ---   --   ---xx   flac  0.6293  gd1981-08-16s1t05.flac
     6:32.62       69294668 B   ---   --   ---xx   flac  0.6508  gd1981-08-16s1t06.flac
     6:27.17       68306828 B   ---   --   ---xx   flac  0.6212  gd1981-08-16s1t07.flac
     8:09.06       86273756 B   ---   --   ---xx   flac  0.6296  gd1981-08-16s1t08.flac
     7:03.35       74699564 B   ---   --   ---xx   flac  0.6553  gd1981-08-16s1t09.flac
     7:25.11       78523916 B   ---   --   ---xx   flac  0.6522  gd1981-08-16s2t01.flac
     9:58.52      105609548 B   ---   --   ---xx   flac  0.6233  gd1981-08-16s2t02.flac
     8:49.30       93386204 B   ---   --   ---xx   flac  0.6256  gd1981-08-16s2t03.flac
     9:53.72      104774588 B   ---   --   ---xx   flac  0.6173  gd1981-08-16s2t04.flac
     8:04.63       85525820 B   ---   --   ---xx   flac  0.6369  gd1981-08-16s2t05.flac
    10:21.40      109638524 B   ---   --   ---xx   flac  0.5740  gd1981-08-16s2t06.flac
     5:31.48       58501340 B   ---   --   ---xx   flac  0.5312  gd1981-08-16s2t07.flac
     6:41.67       70894028 B   ---   --   ---xx   flac  0.6283  gd1981-08-16s2t08.flac
     9:42.41      102761276 B   ---   --   ---xx   flac  0.5640  gd1981-08-16s2t09.flac
     3:42.19       39205532 B   ---   --   ---xx   flac  0.6412  gd1981-08-16s2t10.flac
     7:34.54       80212652 B   ---   --   ---xx   flac  0.6419  gd1981-08-16s2t11.flac
     7:29.36       79288316 B   ---   --   ---xx   flac  0.5953  gd1981-08-16s2t12.flac
   152:33.30     1614660684 B                            0.6193  (21 files)

No errors occured.



Show Checksums
flac-md5
e5ae9da78e5bdb050bd66fe62f58fafe *gd1981-08-16s1t01.flac
3d57009cbbc3602850ec04e7e61126db *gd1981-08-16s1t02.flac
3c92c8336f0dc12698a2ac7217f62feb *gd1981-08-16s1t03.flac
407798c73627857210a448ee732fdca8 *gd1981-08-16s1t04.flac
4fdac7f00f674f3fa4171513635694a0 *gd1981-08-16s1t05.flac
8a13e27ee0de34f995e0d8e40cf8e368 *gd1981-08-16s1t06.flac
37de5a8b07523e41e52cbbf5996f746b *gd1981-08-16s1t07.flac
c80739973fdb731170950e9b54b712a8 *gd1981-08-16s1t08.flac
f856bdcbe070c550f805af61918ba692 *gd1981-08-16s1t09.flac
2abbd834b4b79624dc86d8ffb5a744c0 *gd1981-08-16s2t01.flac
de1e509ba1a3b065336c7e8f0156d8a0 *gd1981-08-16s2t02.flac
e91f5d2a594ee49a2b2287ec5306c1bc *gd1981-08-16s2t03.flac
adc49745926a0e7dee73fd99a7609f35 *gd1981-08-16s2t04.flac
9f5f9de82c299c013450ba00fc1bf8cd *gd1981-08-16s2t05.flac
3234ef302563f3bf615ca4b524464f3d *gd1981-08-16s2t06.flac
5e78d24f35024e285ff82b9365fcda94 *gd1981-08-16s2t07.flac
fe5a37d23b44b9627da0bf64a6c0a9e3 *gd1981-08-16s2t08.flac
f3f41d6e3380a3fa89be5cc7990b011a *gd1981-08-16s2t09.flac
b9a790c71394eeee12e5d29eccc8df26 *gd1981-08-16s2t10.flac
e6aec2fd4ed40f107214854a0922fac6 *gd1981-08-16s2t11.flac
648cf82009db3292d4e9e7e81ef8a1ef *gd1981-08-16s2t12.flac
ffp
gd1981-08-16s1t01.flac:ed91e868299decfaf32836b577f565e5
gd1981-08-16s1t02.flac:2bfe24e151f7e7c6053cd10126c45f6a
gd1981-08-16s1t03.flac:f2badeaa04aec0785c74e08ca88b266b
gd1981-08-16s1t04.flac:14424bbf0883e6dd6c305bfb1b196122
gd1981-08-16s1t05.flac:ec318c6ac47d54484663a04435330b5d
gd1981-08-16s1t06.flac:c8c0967fe8ca5b0f7b73622f7d2e726e
gd1981-08-16s1t07.flac:2fcd6bdcdda5f964fe05684947e7cedd
gd1981-08-16s1t08.flac:94fbf8ece4cba7b5736a7875a8b791c2
gd1981-08-16s1t09.flac:21e6af4617c3779eb45c14eaa6a101ea
gd1981-08-16s2t01.flac:7b47fb1bdfdf3bc431ed64849b2a166f
gd1981-08-16s2t02.flac:0e0f4e0204b629fafda19dc25bbee42e
gd1981-08-16s2t03.flac:4db218d1487ded31a1798cb545b942f1
gd1981-08-16s2t04.flac:8ea9db9e87fa980f90d713309909456e
gd1981-08-16s2t05.flac:e8c77e784b9d0c554de5e7cfca142a57
gd1981-08-16s2t06.flac:4706dda7060904c149bdb20b73fe989c
gd1981-08-16s2t07.flac:03029dde75c1af32f3bd3f3f5c3b5815
gd1981-08-16s2t08.flac:32e5f35648c1c22e5f94b81f1e0acac0
gd1981-08-16s2t09.flac:f58326351cd1b9aa7877af7a5b27cb92
gd1981-08-16s2t10.flac:94da9e4acb9eec5f276fff3bbf816984
gd1981-08-16s2t11.flac:da3e506a2a2d3767056fc3b8354d6b5a
gd1981-08-16s2t12.flac:edbe870da9a7579b16b24a266fe66b99

Comments
Add Comment
Other Sources (comments)
Recording by Jim Vita.... (1) flac16; SBD > ? >... (1) flac16; Recording... (0) flac24; AUD:... (0)
Date User Comment