Browse Collections Artists Sources   Search Dates

Add Show    List Management    Help


Grateful Dead 10/18/80
Saenger Performing Arts Center, New Orleans, LA
Comments Add Comment    Source Collectors    Add to Collection    Add to Want List    History
Source # 135529 Other Sources
Entered by Matt Vernon
Checksums flac-md5 , ffp
Disc Counts 0 / 0
Media Size Compressed: 1.18 GB (1265912558 bytes)
Uncompressed: 2.08 GB (2229652808 bytes)
Date Circulated
Date Added
04/20/2016
04/20/2016
Source Summary flac16; Recording Info: SBD -> Cassette Master -> Dat -> AIFF; Transfer Info: AIFF -> Samplitude Professional v11.2.1 -> FLAC; All Transfers and Mastering By Charlie Miller 
  Archive
Source Information - Download Text | Download Zip
Grateful Dead - October 18, 1980
Saenger Theatre - New Orleans, LA

Recording Info:
SBD -> Cassette Master -> Dat -> AIFF

Transfer Info:
AIFF -> Samplitude Professional v11.2.1 -> FLAC
(3 Discs Audio / 1 DVD FLAC)

All Transfers and Mastering By Charlie Miller
[email protected]
April 19, 2016

Notes:
-- All disc changes are seamless
-- Cut in Saint Of Circumstance is now patched

Patch Info:
(FOB) Neumann km84 -> Cassette Master -> Dat -> CD (shnid=13596) Supplies:
Dire Wolf (complete track)
On The Road Again (complete track)
It Must Have Been The Roses (0:00 - 4:34)
Alabama Getaway (complete track)
Greatest Story Ever Told (complete track)
Friend Of The Devil (complete track)
Saint Of Circumstance (1:47 - 2:38)
Estimated Prophet (3:33 - 9:11)

Set 1:
d1t01 - Dire Wolf
d1t02 - On The Road Again
d1t03 - It Must Have Been The Roses
d1t04 - Monkey And The Engineer
d1t05 - I've Been All Around This World
d1t06 - Heaven Help The Fool
d1t07 - To Lay Me Down ->
d1t08 - Ripple

Set 2:
d1t09 - Alabama Getaway ->
d1t10 - Greatest Story Ever Told
d1t11 - Friend Of The Devil
d1t12 - Tuning
d1t13 - Me And My Uncle ->
d1t14 - Big River
d2t01 - Loser
d2t02 - New Minglewood Blues
d2t03 - Althea ->
d2t04 - Lost Sailor ->
d2t05 - Saint Of Circumstance ->
d2t06 - Deal

Set 3:
d2t07 - Tuning
d2t08 - China Cat Sunflower ->
d2t09 - I Know You Rider
d2t10 - Feel Like A Stranger
d2t11 - Ship Of Fools
d3t01 - Estimated Prophet ->
d3t02 - Eyes Of The World ->
d3t03 - Drums ->
d3t04 - Space ->
d3t05 - Not Fade Away ->
d3t06 - Black Peter ->
d3t07 - Around And Around ->
d3t08 - Johnny B. Goode

Encore:
d3t09 - One More Saturday Night


SHNTOOL OUTPUT:
    length     expanded size    cdr  WAVE problems  fmt   ratio  filename
     4:03.71       43032236 B   ---   --   ---xx   flac  0.6246  gd80-10-18d1t01.flac
     3:39.42       38730428 B   ---   --   ---xx   flac  0.6104  gd80-10-18d1t02.flac
     6:51.25       72559244 B   ---   --   ---xx   flac  0.5879  gd80-10-18d1t03.flac
     4:09.40       44017724 B   ---   --   ---xx   flac  0.5553  gd80-10-18d1t04.flac
     5:21.04       56633852 B   ---   --   ---xx   flac  0.5567  gd80-10-18d1t05.flac
     7:51.38       83173820 B   ---   --   ---xx   flac  0.5540  gd80-10-18d1t06.flac
     9:12.49       97488092 B   ---   --   ---xx   flac  0.5091  gd80-10-18d1t07.flac
     4:40.41       49488476 B   ---   --   ---xx   flac  0.5675  gd80-10-18d1t08.flac
     4:22.43       46317980 B   ---   --   ---xx   flac  0.6237  gd80-10-18d1t09.flac
     4:16.18       45200780 B   ---   --   ---xx   flac  0.6088  gd80-10-18d1t10.flac
     9:47.37      103633868 B   ---   --   ---xx   flac  0.6268  gd80-10-18d1t11.flac
     1:39.34       17543612 B   ---   --   ---xx   flac  0.4355  gd80-10-18d1t12.flac
     2:59.59       31714412 B   ---   --   ---xx   flac  0.5833  gd80-10-18d1t13.flac
     6:14.24       66030092 B   ---   --   ---xx   flac  0.5836  gd80-10-18d1t14.flac
     8:23.02       88733948 B   ---   --   ---xx   flac  0.5454  gd80-10-18d2t01.flac
     7:32.22       79784588 B   ---   --   ---xx   flac  0.5657  gd80-10-18d2t02.flac
     8:07.06       85920956 B   ---   --   ---xx   flac  0.5665  gd80-10-18d2t03.flac
     6:27.40       68360924 B   ---   --   ---xx   flac  0.5693  gd80-10-18d2t04.flac
     6:14.12       66001868 B   ---   --   ---xx   flac  0.5859  gd80-10-18d2t05.flac
     7:06.47       75256988 B   ---   --   ---xx   flac  0.5840  gd80-10-18d2t06.flac
     1:15.03       13237100 B   ---   --   ---xx   flac  0.5087  gd80-10-18d2t07.flac
     4:51.68       51492380 B   ---   --   ---xx   flac  0.5807  gd80-10-18d2t08.flac
     7:37.22       80666588 B   ---   --   ---xx   flac  0.5665  gd80-10-18d2t09.flac
    10:01.04      106025852 B   ---   --   ---xx   flac  0.5799  gd80-10-18d2t10.flac
     8:42.15       92116124 B   ---   --   ---xx   flac  0.5628  gd80-10-18d2t11.flac
    10:28.14      110812172 B   ---   --   ---xx   flac  0.5885  gd80-10-18d3t01.flac
     8:24.23       88959740 B   ---   --   ---xx   flac  0.5999  gd80-10-18d3t02.flac
     8:05.40       85648124 B   ---   --   ---xx   flac  0.4851  gd80-10-18d3t03.flac
     3:34.67       37907228 B   ---   --   ---xx   flac  0.5049  gd80-10-18d3t04.flac
     5:56.53       62923100 B   ---   --   ---xx   flac  0.5386  gd80-10-18d3t05.flac
     9:20.33       98861660 B   ---   --   ---xx   flac  0.5482  gd80-10-18d3t06.flac
     4:06.53       43519100 B   ---   --   ---xx   flac  0.5564  gd80-10-18d3t07.flac
     4:31.32       47879708 B   ---   --   ---xx   flac  0.5709  gd80-10-18d3t08.flac
     4:43.25       49980044 B   ---   --   ---xx   flac  0.5731  gd80-10-18d3t09.flac
   210:39.56     2229652808 B                            0.5678  (34 files)

Show Checksums
flac-md5
1a45f1a4d144a8f6dc06213d055306d6 *gd80-10-18d1t01.flac
7fcfc6541527386f2b984c091cb94895 *gd80-10-18d1t02.flac
115607e40840e98679e6113cba558dfd *gd80-10-18d1t03.flac
e20abf18ea9e7bf97f5b1a609a0c076c *gd80-10-18d1t04.flac
a906e8c0850a931061c81d1c19cbc37d *gd80-10-18d1t05.flac
9ee8e7fd715e282d0307638e9743184f *gd80-10-18d1t06.flac
c35aaa7c9817b89a7c5467a6beeac87f *gd80-10-18d1t07.flac
f4d0b25b541dabd6e97c8c1b10b81c50 *gd80-10-18d1t08.flac
afbc7f8c3fb629bfd2002b26a823306f *gd80-10-18d1t09.flac
e0363beddddffaef75e214140226229a *gd80-10-18d1t10.flac
06208f40f3f30623ae8bcedb1b6a6cf5 *gd80-10-18d1t11.flac
68dc9b70ca6b44a7a05b99e06dc979d2 *gd80-10-18d1t12.flac
a5233befdc32eb77591f070a29224413 *gd80-10-18d1t13.flac
d94f5a618b988dd387d554ac7feda010 *gd80-10-18d1t14.flac
6d47bd55bdb94997d7df802a17b40ef4 *gd80-10-18d2t01.flac
45897ac22cc6637516c7b995e94657ed *gd80-10-18d2t02.flac
c8da1b529a963b71a42f15e41c949b11 *gd80-10-18d2t03.flac
5b6b0aa336fab7a95abada4d948edf7d *gd80-10-18d2t04.flac
ff9554b3dd4c2f51e8f7623fdd6d107f *gd80-10-18d2t05.flac
cec1cb1d0c32f151ef851cfdb23a8555 *gd80-10-18d2t06.flac
1d3f6cf604d1c8b38639e75cea16a252 *gd80-10-18d2t07.flac
a8f01985f6e29ab3f877583b18fa87ba *gd80-10-18d2t08.flac
de523499b4b8441719a3b2cfc0917048 *gd80-10-18d2t09.flac
aa8bd0248e86723dad5f263f1cc0b319 *gd80-10-18d2t10.flac
593a1d3fbeb73b36e7b8185bae45a914 *gd80-10-18d2t11.flac
1706d19db4af514e8e2c85b48ea1fe49 *gd80-10-18d3t01.flac
f444e253daa1067d920954191ae20574 *gd80-10-18d3t02.flac
f206a87d0795bb8f39865e4a71271a1e *gd80-10-18d3t03.flac
654241b83bc369afb5cdc02f325dd516 *gd80-10-18d3t04.flac
bd8c64f54aa230eda941e75ca0ffc765 *gd80-10-18d3t05.flac
6b086db6c5f9ded609f18e6e2a0c4952 *gd80-10-18d3t06.flac
c4120629ea25e7c61f6ab1764313180d *gd80-10-18d3t07.flac
e9edb4fd345fb36151046956e1540264 *gd80-10-18d3t08.flac
8a83ef83d4f34aefd9d1a71892e599f9 *gd80-10-18d3t09.flac
ffp
gd80-10-18d1t01.flac:c8fa09ed5fbc87242ca1819bd8d6b0b3
gd80-10-18d1t02.flac:f6fd48ffdc52e77411a2381b68f8b937
gd80-10-18d1t03.flac:9619420ace34b24b3d10c0ec7131a2e4
gd80-10-18d1t04.flac:c31558688a8ee7c9a41d6bb6e97f2dae
gd80-10-18d1t05.flac:5ca5e114c8d890dfe5c65ff9552557b2
gd80-10-18d1t06.flac:1e7bfea7f74318a87243f4f913d4d681
gd80-10-18d1t07.flac:688e8033154b1d395a2a45f2cc0683da
gd80-10-18d1t08.flac:97a558b8bfb4e2c073495f59d85489be
gd80-10-18d1t09.flac:562796887cfffa0e97f763a2ac77313c
gd80-10-18d1t10.flac:ba2bca297ff8a3e71a177f5288f11f3b
gd80-10-18d1t11.flac:d26185f8d15a9c87dd9c56d001c7343f
gd80-10-18d1t12.flac:96cbce7c4b33c73f634a415369fada42
gd80-10-18d1t13.flac:a670cbc6aa13e82109f8bffb2148a16c
gd80-10-18d1t14.flac:c2531ec106db7b0f912e69c3d0021aa1
gd80-10-18d2t01.flac:a108c2e7ae3cf7d50e6d1769500bac6d
gd80-10-18d2t02.flac:d3a689c807421abb965546432ff18d4e
gd80-10-18d2t03.flac:449e00deca148558f82ad821fa484706
gd80-10-18d2t04.flac:72ef9da059b6f451cd82664ce1efab05
gd80-10-18d2t05.flac:c9d53538f5c7525145bcc995af8e4a7a
gd80-10-18d2t06.flac:0290def7262e5d80b6e0ac17572627d2
gd80-10-18d2t07.flac:7a89f2e551b30769adec158a68b63333
gd80-10-18d2t08.flac:5806ce9e60e82db0cfaa02dbdb3ca353
gd80-10-18d2t09.flac:0a5bacb5ff3d68c43a747a213ed969db
gd80-10-18d2t10.flac:35c8419b1a11fdff936ba4df392b8d0d
gd80-10-18d2t11.flac:c0a0871e2aaf215a4d6e23416fe8e6b3
gd80-10-18d3t01.flac:909d7dae2267c9438e10728355db2742
gd80-10-18d3t02.flac:4e2bb71e602a780df65d2a1087513d36
gd80-10-18d3t03.flac:5d61c94926de1d8eeffd4c56161c0797
gd80-10-18d3t04.flac:d2358438a864b1390fafa4dad519f829
gd80-10-18d3t05.flac:473c8f002d6fa2518b3755503b0e01e2
gd80-10-18d3t06.flac:91bfb4ce90943be028ea26a88b17f2fe
gd80-10-18d3t07.flac:bc99395f3e150ff1b8bd572f80a4610d
gd80-10-18d3t08.flac:2e3a059ba6bb2d4aedb2c1d596d1080a
gd80-10-18d3t09.flac:af373329907702a4b7ec254ad77effd4

Comments
Add Comment
Other Sources (comments)
FOB Neumann km84> Cm> Dat>... (0) flac16; Recording... (2)
Date User Comment