Browse Collections Artists Sources   Search Dates

Add Show    List Management    Help


Grateful Dead 05/02/81
The Spectrum, Philadelphia, PA
Comments Add Comment    Source Collectors    Add to Collection    Add to Want List    History
Source # 135559 Other Sources
Entered by Matt Vernon
Checksums ffp , flac-md5
Disc Counts 0 / 0
Media Size Compressed: 971.63 MB (1018823988 bytes)
Date Circulated
Date Added
05/01/2016
05/01/2016
Source Summary flac16; 2 source matrix by Dusborne; Soundboard (shnid:30152) Recording Info: SBD -> Cassette Master (Sony TCD5M) -> Reel (Technics 1/2 Track 7.5 Inch) -> Dat; Transfer Info: Dat (Fostex D5) -> Audiophile 2496 -> Samplitude v7.02 Professional -> FLAC,Transferred By Joe Samaritano,Patched and Edited By Charlie Miller; Audience (shnid:134759)Sennheiser MD421 Dynamic Cardioid Microphones-TC D5 Cassette Recorder, Location: Soundboard,Analog to Digital: Dolby B Decoded Cassette Master played back on Nakamichi Dragon-Korg MR-1000(DSF[1-bit 5.6448 MHz Stereo])Korg AudioGate-WAV[24/96],Recording,Editing & Processing by Jim Wise,Transfer by David Minches 
  Archive
Source Information - Download Text | Download Zip
Grateful Dead
May 2, 1981
The Spectrum
Philadelphia, PA

2 Source Matrix

Soundboard (shnid:30152)
--------------------------------------------------------------------------------
gd81-05-02.sbd.miller.30152.sbeok.flac16

Recording Info:
SBD -> Cassette Master (Sony TCD5M) -> Reel (Technics 1/2 Track 7.5 Inch) -> Dat

Transfer Info:
Dat (Fostex D5) -> Audiophile 2496 -> Samplitude v7.02 Professional -> FLAC
(3 Discs Audio / 2 Discs FLAC)

Transferred By Joe Samaritano
Patched and Edited By Charlie Miller
[email protected]
July 24, 2005

Patch Info:
A few songs had their beginning clipped, so I patched them with:
Nakamichi 300/CP4 -> Cassette Master -> UA5 -> Sound Forge -> CD (ID#28304)

Notes:
-- There was a problem with the previous (SBD) Dat transfer.
-- The patch source used here has also been upgraded.

Audience (shnid:134759)
-------------------------------------------------------------------------------
gd81-05-02.134759.aud.wise.minches.flac24

Cassette Audience Master recorded By Jim Wise
Sennheiser MD421 Dynamic Cardioid Microphones-TC D5 Cassette Recorder
Location:Soundboard

Analog to Digital: Dolby B Decoded Cassette Master played back on Nakamichi Dragon-Korg MR-1000(DSF[1-bit 5.6448 MHz Stereo])
Korg AudioGate-WAV[24/96] Transfer by David Minches:May 2015

This is the 24 bit 96KHz file set

Editing(Adobe Audition CC)-Mastering(iZotope Ozone 6)-FLAC encoding(dBpoweramp)-Tagging(Tag & Re-name)
All Editing & Processing by Jim Wise:December 2015
----------------------------------------------------------------------------------------------
---Thank you Jim Wise for recording the show.
---Thank you David Minches for the AUD transfer.
---Thank you Charlie Miller for your work on the SBD.
---Thank you Joe Samaritano for the SBD transfer.
---Thank you XJ32 for the art work.
---Thank you Germain for your advice, encouragement, guidance and seeding.

Matrix by dusborne

04-27-2016
------------------------------------------------------------------------------------------------
Set 1

101 - gd81-05-02s1t01 - Tuning
102 - gd81-05-02s1t02 - Jack Straw ->
103 - gd81-05-02s1t03 - Sugaree ->
104 - gd81-05-02s1t04 - El Paso
105 - gd81-05-02s1t05 - Bird Song
106 - gd81-05-02s1t06 - Cassidy
107 - gd81-05-02s1t07 - Candyman ->
108 - gd81-05-02s1t08 - New Minglewood Blues
109 - gd81-05-02s1t09 - Althea
110 - gd81-05-02s1t10 - The Promised Land

Set 2

201 - gd81-05-02s2t01 - Scarlet Begonias ->
202 - gd81-05-02s2t02 - Fire on the Mountain
203 - gd81-05-02s2t03 - Estimated Prophet ->
204 - gd81-05-02s2t04 - Terrapin Station ->
205 - gd81-05-02s2t05 - Drums ->
206 - gd81-05-02s2t06 - Space ->
207 - gd81-05-02s2t07 - Not Fade Away ->
208 - gd81-05-02s2t08 - Stella Blue ->
209 - gd81-05-02s2t09 - Around & Around ->
210 - gd81-05-02s2t10 - Good Lovin'

Encore
211-d3t06 - One More Saturday Night*
*Audience recording only
-------------------------------------------------------------------------------------
Tagging notes:
Show information is embedded within the header of each flac file.
It will display on any player capable of directly playing flac files.
If converted to wav during processing, all tags will be stripped,
however audio data will remain unaffected.
If you must transcode to a lossy format, do so directly Flac > Lossy.
Use ffp to validate audio integrity.
Md5 values will change if tagging is altered.

Dave Usborne 04-27-2016
------------------------------------------------------------------------------------
length     expanded size    cdr  WAVE problems  fmt   ratio  filename
     1:40.36       17724716 B   ---   --   ---xx   flac  0.5078  gd81-05-02s1t01.flac
     5:06.35       54060764 B   ---   --   ---xx   flac  0.6292  gd81-05-02s1t02.flac
    10:44.44      113705132 B   ---   --   ---xx   flac  0.6095  gd81-05-02s1t03.flac
     6:16.47       66436988 B   ---   --   ---xx   flac  0.5950  gd81-05-02s1t04.flac
    10:53.38      115278620 B   ---   --   ---xx   flac  0.6166  gd81-05-02s1t05.flac
     5:45.73       61029740 B   ---   --   ---xx   flac  0.6256  gd81-05-02s1t06.flac
     7:00.42       74186828 B   ---   --   ---xx   flac  0.5927  gd81-05-02s1t07.flac
     7:17.41       77183276 B   ---   --   ---xx   flac  0.6291  gd81-05-02s1t08.flac
     8:55.65       94526924 B   ---   --   ---xx   flac  0.6062  gd81-05-02s1t09.flac
     4:15.28       45047900 B   ---   --   ---xx   flac  0.6230  gd81-05-02s1t10.flac
    12:10.68      128931980 B   ---   --   ---xx   flac  0.5969  gd81-05-02s2t01.flac
    10:44.46      113709836 B   ---   --   ---xx   flac  0.5989  gd81-05-02s2t02.flac
    12:13.71      129468236 B   ---   --   ---xx   flac  0.5940  gd81-05-02s2t03.flac
    11:52.64      125747372 B   ---   --   ---xx   flac  0.5853  gd81-05-02s2t04.flac
     8:40.62       91873868 B   ---   --   ---xx   flac  0.5539  gd81-05-02s2t05.flac
     4:17.36       45419516 B   ---   --   ---xx   flac  0.5147  gd81-05-02s2t06.flac
     7:43.69       81835532 B   ---   --   ---xx   flac  0.5905  gd81-05-02s2t07.flac
     8:13.11       86991116 B   ---   --   ---xx   flac  0.5561  gd81-05-02s2t08.flac
     3:51.67       40906028 B   ---   --   ---xx   flac  0.6136  gd81-05-02s2t09.flac
     8:17.56       87802556 B   ---   --   ---xx   flac  0.6258  gd81-05-02s2t10.flac
     4:41.27       49631948 B   ---   --   ---xx   flac  0.6692  gd81-05-02s2t11.flac
   160:45.51     1701498876 B                            0.5988  (21 files)

Show Checksums
ffp
gd81-05-02s1t01.flac:559acd783a9008e18d6ed1ac96391ea1
gd81-05-02s1t02.flac:470a65baa525a0eb93f1e439138a63bf
gd81-05-02s1t03.flac:c935b74ee35398264579aa828a31c049
gd81-05-02s1t04.flac:d967b053dbdbe2b03113cd77c5ad9c73
gd81-05-02s1t05.flac:63d971ca3ec3e2e6bb4dd3ed2904dedd
gd81-05-02s1t06.flac:029acc12e8699745523c2471645ac950
gd81-05-02s1t07.flac:b6b911397b05d48f978232377deab379
gd81-05-02s1t08.flac:ac93d8e58b956688af7953a20ed55345
gd81-05-02s1t09.flac:6a4bd2145e874d360395c8383c320ec8
gd81-05-02s1t10.flac:d30fb63f9eea0e06c8ae092d15cc7f4d
gd81-05-02s2t01.flac:0628d5fb35f66e5cc409598eb9c0b06d
gd81-05-02s2t02.flac:9aa47d037cd6e71ce0d0bd7b76e7666e
gd81-05-02s2t03.flac:b1c4dc51ed8835ebf7d16f5f537f7045
gd81-05-02s2t04.flac:5ca366d54393eb20679a5745df704eec
gd81-05-02s2t05.flac:5768cdfedd7af2361bb0199b65a56ceb
gd81-05-02s2t06.flac:9c298aa9a5ca3a71d2d5e577d9528306
gd81-05-02s2t07.flac:0f7bd15948e22ba57ad2adab6168f32b
gd81-05-02s2t08.flac:608de6ca074799b7638ed465da0ce2fa
gd81-05-02s2t09.flac:ab2172239d979844503a20aabbb402b4
gd81-05-02s2t10.flac:5c4a603da69a12608d579ce4c4c6c75f
gd81-05-02s2t11.flac:105d8a5fda67cc96c26bc508631177a6
flac-md5
f9bd4de7f24c3b320f19fd3a447a2460 *gd81-05-02s1t01.flac
175f59130dc949e54ec157c765eb9fd6 *gd81-05-02s1t02.flac
502a8faf0739397b1023e2b2f25e9cb6 *gd81-05-02s1t03.flac
010f8c4d6ea63e8da99dc5be667f9c7b *gd81-05-02s1t04.flac
e772f09e02a8c10b618e634813bb8178 *gd81-05-02s1t05.flac
a0d134730d6b8157f0d64755ac009c89 *gd81-05-02s1t06.flac
cc83a2542fa3959f898e914907ad8289 *gd81-05-02s1t07.flac
8831dd570e4b8306282b0c8b30c8262b *gd81-05-02s1t08.flac
84de58d3d92bb13b9991ad82e2a633be *gd81-05-02s1t09.flac
4c0bade99d91fdd1c3932826ddd2f4f5 *gd81-05-02s1t10.flac
49e0a80f64d6b52cb16b8c6f7e5ecf52 *gd81-05-02s2t01.flac
e503be3cf358d630b69519d38a082079 *gd81-05-02s2t02.flac
f8c1e9b47fd5a266dc9d664325baf3d7 *gd81-05-02s2t03.flac
ca81b64832dec2f1eabe421f6f67bd01 *gd81-05-02s2t04.flac
c838ebdfff7a1873e07620de79394dd3 *gd81-05-02s2t05.flac
b3364d64bc3fcd8a8386d5c0af76de00 *gd81-05-02s2t06.flac
d8ee56a53c4010bcff0e9f65956a7efe *gd81-05-02s2t07.flac
4d770d7726d7c2a9a6a6a1ff70c10e75 *gd81-05-02s2t08.flac
f7a6df8f7fe354c6d5957c85beed59ba *gd81-05-02s2t09.flac
ea484194d7c093309f1d56348abe3d40 *gd81-05-02s2t10.flac
6d42e96022dd92d766a2145a36c5efd6 *gd81-05-02s2t11.flac

Comments
Add Comment
Other Sources (comments)
Recording by Jim Wise.... (2) AUD : MC (FOB Senn 421s >... (0) Main Lineage: Soundboard ->... (0) flac16; Recording by... (6) flac16; SBD ->... (0) flac24; Cassette... (0) flac24; Source Info:... (0) flac16/48kHz; Source... (0)
Date User Comment