Browse Collections Artists Sources   Search Dates

Add Show    List Management    Help


Grateful Dead 05/04/81
The Spectrum, Philadelphia, PA
Comments Add Comment    Source Collectors    Add to Collection    Add to Want List    History
Source # 135560 Other Sources
Entered by Matt Vernon
Checksums flac-md5 , ffp
Disc Counts 0 / 0
Media Size Compressed: 0.99 GB (1067556544 bytes)
Date Circulated
Date Added
05/01/2016
05/01/2016
Source Summary flac16; 2 source matrix by Dusborne; Soundboard (shnid:2250), Master Soundboard Cassette > Cassette > DAT > CDR, CD Mastering by Scott Clugston; Audience (shnid:134792),Sennheiser MD421 Dynamic Cardioid Microphones-TC D5 Cassette Recorder,Location:Soundboard,Analog to Digital: Dolby B Decoded Cassette Master played back on Nakamichi Dragon-Korg MR-1000(DSF[1-bit 5.6448 MHz Stereo]) Recording,Editing and Mastering by Jim Wise, Transfer by David Minches 
  Archive
Source Information - Download Text | Download Zip
Grateful Dead
May 4, 1981
The Spectrum
Philadelphia, PA

2 Source Matrix

Soundboard (shnid:2250)
--------------------------------------------------------------------------------
gd81-05-04.sbd.clugston.2250.sbeok.flac16

Sources:

Master Soundboard Cassette > Cassette > DAT > CDR

Master Audience Cassette; Nakamichi CM300 mics > Sony D5 source supplies the
beginnings of;
Don't Ease Me In
BIODTL
Jack-A-Roe
Althea
Looks Like Rain",
as well as the end of the set break announcement after"GSET",
the beginning of "To Lay Me Down" and a
0:02 patch during the transition between Lost Sailor and Saint of Circumstance.

Unfortunately, both the Sbd and the Aud in my possession are/were missing most
of "Drums" and "Space".

Patching, CD Mastering by Scott Clugston
EAC'ed / SHN'ed by Scott Clugston
Circulated 12/16/00

Flac encoding notes:
All processing with Trader's Little Helper
Shn - st5 generated
Shn > Flac ( level 8 )
Flac - st5 generated and matched to Shn st5
B. Proctor 3-29-10

Audience (shnid:134792)
-------------------------------------------------------------------------------
gd1981-05-04.134792.aud.wise.minches.flac24

Cassette Audience Master recorded By Jim Wise
Sennheiser MD421 Dynamic Cardioid Microphones-TC D5 Cassette Recorder
Location:Soundboard

Analog to Digital: Dolby B Decoded Cassette Master played back on Nakamichi Dragon-Korg MR-1000(DSF[1-bit 5.6448 MHz Stereo])

Korg AudioGate-WAV[24/96] Transfer by David Minches:May 2015

24 bit 96KHz file set

Editing(Adobe Audition CC)-Mastering(iZotope Ozone 6)-FLAC encoding(dBpoweramp)-Tagging(Tag & Re-name)
JW:December 2015

----------------------------------------------------------------------------------------------
---Thank you Jim Wise for recording the show.
---Thank you David Minches for the AUD transfer.
---Thank you Scott Clugston for your work on the SBD.
---Thank you XJ32 for the art work.
---Thank you Germain for your advice, encouragement, guidance and seeding.

Matrix by dusborne

04-27-2016
------------------------------------------------------------------------------------------------
Set 1

101 - gd81-05-04s1t01 - Tuning
102 - gd81-05-04s1t02 - Don't Ease Me In
103 - gd81-05-04s1t03 - Beat It on Down the Line
104 - gd81-05-04s1t04 - Jack-A Roe ->
105 - gd81-05-04s1t05 - Little Red Rooster
106 - gd81-05-04s1t06 - Cold Rain & Snow
107 - gd81-05-04s1t07 - Mama Tried ->
108 - gd81-05-04s1t08 - Mexicali Blues
109 - gd81-05-04s1t09 - Althea
110 - gd81-05-04s1t10 - Looks Like Rain
111 - gd81-05-04s1t11 - Bertha ->
112 - gd81-05-04s1t12 - Greatest Story Ever Told

Set  2

201 - gd81-05-04s2t01 - China Cat Sunflower ->
202 - gd81-05-04s2t02 - I Know You Rider
203 - gd81-05-04s2t03 - Samson & Delilah
204 - gd81-05-04s2t04 - To Lay Me Down
205 - gd81-05-04s2t05 - Playing in the Band ->
206 - gd81-05-04s2t06 - Drums*
207 - gd81-05-04s2t07 - Nobodys Fault But Mine ->
208 - gd81-05-04s2t08 - Lost Sailor ->
209 - gd81-05-04s2t09 - Saint of Circumstance ->
210 - gd81-05-04s2t10 - Black Peter ->
211 - gd81-05-04s2t11 - Sugar Magnolia

Encore
212 - gd81-05-04s2t12 - Brokedown Palace
*AUD Only
--------------------------------------------------------------------------------------------------
Tagging notes:
Show information is embedded within the header of each flac file.
It will display on any player capable of directly playing flac
files. If converted to wav during processing, all tags will be
stripped, however audio data will remain unaffected. If you must
transcode to a lossy format, do so directly Flac > Lossy.
Use st5 to validate audio integrity.
Md5 values will change if tagging is altered.

Dave Usborne 04-27-2016
------------------------------------------------------------------------------------------------------
length     expanded size    cdr  WAVE problems  fmt   ratio  filename
     1:17.26       13643996 B   ---   --   ---xx   flac  0.5731  gd81-05-04s1t01.flac
     3:50.34       40652012 B   ---   --   ---xx   flac  0.6044  gd81-05-04s1t02.flac
     3:35.10       37949564 B   ---   --   ---xx   flac  0.6139  gd81-05-04s1t03.flac
     4:33.39       48248972 B   ---   --   ---xx   flac  0.6028  gd81-05-04s1t04.flac
     9:47.67      103704428 B   ---   --   ---xx   flac  0.5827  gd81-05-04s1t05.flac
     7:12.44       76308332 B   ---   --   ---xx   flac  0.5722  gd81-05-04s1t06.flac
     2:27.70       26095484 B   ---   --   ---xx   flac  0.6297  gd81-05-04s1t07.flac
     4:27.33       47176460 B   ---   --   ---xx   flac  0.6201  gd81-05-04s1t08.flac
     8:07.30       85977404 B   ---   --   ---xx   flac  0.5890  gd81-05-04s1t09.flac
    10:58.61      116214716 B   ---   --   ---xx   flac  0.5627  gd81-05-04s1t10.flac
     6:54.44       73133132 B   ---   --   ---xx   flac  0.6580  gd81-05-04s1t11.flac
     4:06.66       43549676 B   ---   --   ---xx   flac  0.6462  gd81-05-04s1t12.flac
     8:26.28       89324300 B   ---   --   ---xx   flac  0.6270  gd81-05-04s2t01.flac
     5:15.12       55594268 B   ---   --   ---xx   flac  0.6442  gd81-05-04s2t02.flac
     7:43.06       81687356 B   ---   --   ---xx   flac  0.6384  gd81-05-04s2t03.flac
    11:33.24      122301692 B   ---   --   ---xx   flac  0.5777  gd81-05-04s2t04.flac
    12:40.49      134179292 B   ---   --   ---xx   flac  0.6412  gd81-05-04s2t05.flac
     9:50.58      104212460 B   ---   --   ---xx   flac  0.5634  gd81-05-04s2t06.flac
     3:56.34       41710412 B   ---   --   ---xx   flac  0.5832  gd81-05-04s2t07.flac
     8:55.43       94475180 B   ---   --   ---xx   flac  0.6274  gd81-05-04s2t08.flac
     4:30.27       47691548 B   ---   --   ---xx   flac  0.6664  gd81-05-04s2t09.flac
     8:56.67       94708028 B   ---   --   ---xx   flac  0.6375  gd81-05-04s2t10.flac
     9:07.44       96594332 B   ---   --   ---xx   flac  0.6619  gd81-05-04s2t11.flac
     6:06.71       64729436 B   ---   --   ---xx   flac  0.6434  gd81-05-04s2t12.flac
   164:23.12     1739862480 B                            0.6136  (24 files)

Show Checksums
flac-md5
b301d9a66d8e76d5d44cfdb727c892d2 *gd81-05-04s1t01.flac
3dc8cc25aa40e3669db9fa6ac6bb9a1a *gd81-05-04s1t02.flac
98c9b5de9e26b6417f34ebef7ead40b0 *gd81-05-04s1t03.flac
5ba5f7c6231311199b4f870bb569e58c *gd81-05-04s1t04.flac
9ef798adbc7b24ed908c574608a93a6b *gd81-05-04s1t05.flac
30537626ff856056c9dfae8ffe95b494 *gd81-05-04s1t06.flac
e3276dec398dcda2467aca23274d7baf *gd81-05-04s1t07.flac
66a9e36d1d50c259fd542aabf7517d4f *gd81-05-04s1t08.flac
bf9102fd3d4c5ae9af779e305cfa3a02 *gd81-05-04s1t09.flac
2e8d3fb2bd65b5fda10b7ffe75dbd3ac *gd81-05-04s1t10.flac
652c737199b837c6bc3dc005b59a5621 *gd81-05-04s1t11.flac
2198c0a72222f1ec91e4dba0495d01a6 *gd81-05-04s1t12.flac
bb32207e70d75d51791cc8ac47f50363 *gd81-05-04s2t01.flac
840c9f763bfd46408384e35469effd79 *gd81-05-04s2t02.flac
1da3c7b9b7a6643c184f30b6432ca1ae *gd81-05-04s2t03.flac
1788b6b75c88b7d2296278c131b46bef *gd81-05-04s2t04.flac
4589e14c2cb7b79539b6a12b840263a6 *gd81-05-04s2t05.flac
e8a384959ba976898f304d25a044025b *gd81-05-04s2t06.flac
cfc589e37760c89e0916e8cb39412f38 *gd81-05-04s2t07.flac
0409408864d5706a18bda160ff61f6a9 *gd81-05-04s2t08.flac
f3e13ee3b69a68c3e826922b5d126b7a *gd81-05-04s2t09.flac
f3c61d67935afa2773b7bf68b78c10fe *gd81-05-04s2t10.flac
798d79159476c412966d349a8cca3811 *gd81-05-04s2t11.flac
448735722eab1d9c8f14f8dee421605d *gd81-05-04s2t12.flac
ffp
gd81-05-04s1t01.flac:2666a2366d892570651d024c96174e84
gd81-05-04s1t02.flac:90ab99e4ce0b60d175602063356944be
gd81-05-04s1t03.flac:c8dd1be5cc13d807a0b6ec316ca6bb4a
gd81-05-04s1t04.flac:12db5c9b102e8c096d1a0f36017a1c50
gd81-05-04s1t05.flac:1d8b525e0f67bc422c101cd683b1a43c
gd81-05-04s1t06.flac:4aba1f610430b8c9e9146245d85f6958
gd81-05-04s1t07.flac:7d6997d0c3ace281f37abcbc20e640b4
gd81-05-04s1t08.flac:27b8e64fbe103d7cd2b0c6a331375b96
gd81-05-04s1t09.flac:a56024d793816d75f53278102d08248a
gd81-05-04s1t10.flac:6a3e0b7556d5c1fdf100b3b31a7ed68b
gd81-05-04s1t11.flac:552a06049424d6ae4215a9afbfc9a1b7
gd81-05-04s1t12.flac:84f654a73eafba81e8a458900924bf30
gd81-05-04s2t01.flac:a5f9fe3e9924030a3f06fdc156241f89
gd81-05-04s2t02.flac:b7a49faa61ae20d87635a90dbaa14b34
gd81-05-04s2t03.flac:ca230654ee4ed5d93ff54e45bb3a2029
gd81-05-04s2t04.flac:183e544584afce3808b395adce1bf4e3
gd81-05-04s2t05.flac:65c5977877d7da476133d5729f22b8de
gd81-05-04s2t06.flac:9e250a1a7d2df9497b8e48e886ef8245
gd81-05-04s2t07.flac:5d4827a0cf6d6ec79e775af85cf9159b
gd81-05-04s2t08.flac:67af9dc8114eeeb06f9461e8efa37c02
gd81-05-04s2t09.flac:4d4d204196f580ba0bce3b9c209de609
gd81-05-04s2t10.flac:28d85d45e728b9cede52b81a1f80f2b0
gd81-05-04s2t11.flac:a5e52f84ef331b7108d99977a4a95fb8
gd81-05-04s2t12.flac:8eada5a4bb7359ddbd7d26ca4c1ef12b

Comments
Add Comment
Other Sources (comments)
Master Soundboard Cassette... (0) Recording by Ohr Weinberg.... (0) flac16; 1st Gen... (0) flac24; Cassette... (0) flac16; Source Info:... (0) flac24; Source Info:... (0) flac16/48kHz; Source... (0)
Date User Comment