Browse Collections Artists Sources   Search Dates

Add Show    List Management    Help


Phish 06/30/89
Pearl Street Night Club, Northampton, MA
Comments Add Comment    Source Collectors    Add to Collection    Add to Want List    History
Source # 1357 Other Sources
Entered by Matt Vernon
Checksums d1 , d2 , st5
Disc Counts 0 / 2
Media Size
Date Circulated
Date Added
8/00
04/30/2001
Source Summary SBD > Sony D6 > Cass/0 > DAT; Tascam DA20 mkII > ZA2 > SF4.5 > CDWav > SHN; Taped by Kevin Greene; Transferred by Jimmy Sellers; Fixes by Ben Mohr (see notes in info file); Seed provided by Daniel Ritchey; note pre-fixed version may also be circulating? 
Source Information - Download Text | Download Zip
PHiSH
06-30-89
Pearl St. - Northampton, MA

Source: SBD > Sony D6 > Cass/0 > DAT
Taper: Kevin Greene
Transfer: Tascam DA20 mkII > ZA2 > SF4.5 > CDWav > SHN

Transferred by Jimmy Sellers ([email protected])
Fixes by Ben Mohr ([email protected])
Seed provided by Daniel Ritchey

--------------------------------------
Disc 1:       (64:55)
--------------------------------------
-Set 1-
1. Funky Bitch       (06:05)
2. You Enjoy Myself           (14:25)
3. McGrupp ->       (08:10)
4. Possum       (08:40)
5. Donna Lee*       (03:47)
6. Fluffhead ->       (13:36)
7. Run Like an Antelope       (10:12)

--------------------------------------
Disc 2:       (45:05)
--------------------------------------
-Set 2-
1. Walk Away       (04:27)
2. AC/DC Bag ->       (05:52)
3. The Curtain ->       (06:23)
4. Slave to the Traffic Light (08:11)
5. Bathtub Gin >       (05:21)
6. Mike's Song ->       (06:45)
7. I Am Hydrogen >            (02:20)
8. Weekapaug Groove       (05:46)

* Charlie Parker cover

Notes:
-For most of the first set, this recording has a channel separation where most
  instrumentals are in the left channel and most vocals are in the right channel.
  The second set is better in terms of mixing. To preserve the original content,
  I left the channels this way instead of mixing them together.
-Dropouts (all <0.050 sec)
  d1t01 1:26
  d1t04 7:47
-Tape Flips
  d1t06 3:34 (44:41)

Fixes:
-Removed digi-burst d1t05 8:48 (<0.001 sec)
-Removed skip in d1t06 8:35 (0.138 sec)
-Removed diginoise d2t04 6:25 using pencil tool to smooth bursts

Show Checksums
d1
e165824a5e645a96ef720f24901bfa54 *ph89-06-30d1t06.shn
a54e80c1a84da1ca78d61b4021fba585 *ph89-06-30d1t04.shn
932d75b0f50bde198383c968350d0d8b *ph89-06-30d1t03.shn
5f01cfca3108c7a8ba84fca7cbb2f88b *ph89-06-30d1t07.shn
8d1709f2e437bcfe322b8245be9a9a3e *ph89-06-30d1t01.shn
c8f16eb82369d74a308bd30ec4dbe665 *ph89-06-30d1t02.shn
85a80e7f048318464ead501d0c36337e *ph89-06-30d1t05.shn
d2
5e6bddaa4bfd105ec53dee11d1028937 *ph89-06-30d2t01.shn
39216f6c066434e0bb271a32821955ec *ph89-06-30d2t02.shn
4a7352a784003dfafc208fa558d80eac *ph89-06-30d2t03.shn
c9a934d355535e9e798e6ffcaee5fa8b *ph89-06-30d2t04.shn
bc4e56c9bd063054dc2fac01ec2472a2 *ph89-06-30d2t05.shn
949372c88bf1d1ffc5de6529457070b9 *ph89-06-30d2t06.shn
1ecd7d458ace4ef4e654e0ded29191d6 *ph89-06-30d2t07.shn
05cb551aa5cbb6c60af8c18067ff7834 *ph89-06-30d2t08.shn
st5
cda0bce63473cf907be20aa0569481b5 [shntool] ph89-06-30d1t01.shn
04ef315f38cdee02a9d0da9824da64c6 [shntool] ph89-06-30d1t02.shn
5735f9397298bc49458f0d44441b4904 [shntool] ph89-06-30d1t03.shn
afe7ec3dcf167c8dc633f0aab7c8a0b3 [shntool] ph89-06-30d1t04.shn
27ca560db5860b8af798abac3252d217 [shntool] ph89-06-30d1t05.shn
9c6a4b23c3cda627457bbc4968cdbca0 [shntool] ph89-06-30d1t06.shn
5b34ea15e3fe4a041034354de57e5f12 [shntool] ph89-06-30d1t07.shn
cac6145da2b87947f491df79742c1dd1 [shntool] ph89-06-30d2t01.shn
e082c0e10045b0b67d911dc922bad378 [shntool] ph89-06-30d2t02.shn
b60e7c1c4b20337dc3d838f153b90bc8 [shntool] ph89-06-30d2t03.shn
244bb570ea8d46ad1fecfaba3388a73a [shntool] ph89-06-30d2t04.shn
7828f950fc8fb220412f640003bd42ce [shntool] ph89-06-30d2t05.shn
fafabd63ace5135816ab7259dffb35b6 [shntool] ph89-06-30d2t06.shn
fc4c4ce77fb45f362283b371141aad7c [shntool] ph89-06-30d2t07.shn
cb5e490f37188301d8100f0bd5dbe92b [shntool] ph89-06-30d2t08.shn

Comments
Add Comment
Other Sources (comments)
SBD > Cass/0 > DAT; Tascam... (2)
Date User Comment
04/15/2007 Ford Prefect length expanded size cdr WAVE problems fmt ratio filename
6:05.39 64477392 B -b- -- ----- wav 1.0000 ph89-06-30d1t01.wav
14:25.27 152649548 B --- -- ----- wav 1.0000 ph89-06-30d1t02.wav
8:10.00 86436044 B --- -- ----- wav 1.0000 ph89-06-30d1t03.wav
8:40.08 91747592 B -b- -- ----- wav 1.0000 ph89-06-30d1t04.wav
3:47.54 40169864 B -b- -- ----- wav 1.0000 ph89-06-30d1t05.wav
13:36.30 144012432 B -b- -e ----- wav 1.0000 ph89-06-30d1t06.wav
10:12.58 108093260 B --- -- ----- wav 1.0000 ph89-06-30d1t07.wav
4:27.18 47141180 B --- -- ----- wav 1.0000 ph89-06-30d2t01.wav
5:52.72 62262188 B --- -- ----- wav 1.0000 ph89-06-30d2t02.wav
6:23.46 67669436 B --- -- ----- wav 1.0000 ph89-06-30d2t03.wav
8:11.20 86659484 B --- -- ----- wav 1.0000 ph89-06-30d2t04.wav
5:21.13 56655020 B --- -- ----- wav 1.0000 ph89-06-30d2t05.wav
08/07/2012 geewiz010 FLAC fingerprints:

ph1989-06-30d1t01.flac:ae3cf4749751e07498794b861535567b
ph1989-06-30d1t02.flac:339a89861d4d8d74fa821c0ec216ba15
ph1989-06-30d1t03.flac:f8571cbb5c51a58642d360c1b0193d22
ph1989-06-30d1t04.flac:8cda700cd28f413115987907849ecc4d
ph1989-06-30d1t05.flac:a10b75069f716ef148679aa6cae5b967
ph1989-06-30d1t06.flac:afa5959c913c1f2e6087c74db2d432c2
ph1989-06-30d1t07.flac:50f3b248d9ec1cb9b19df8dceeff17cc
ph1989-06-30d2t01.flac:cac6145da2b87947f491df79742c1dd1
ph1989-06-30d2t02.flac:e082c0e10045b0b67d911dc922bad378
ph1989-06-30d2t03.flac:b60e7c1c4b20337dc3d838f153b90bc8
ph1989-06-30d2t04.flac:244bb570ea8d46ad1fecfaba3388a73a
ph1989-06-30d2t05.flac:7828f950fc8fb220412f640003bd42ce
ph1989-06-30d2t06.flac:fafabd63ace5135816ab7259dffb35b6
ph1989-06-30d2t07.flac:fc4c4ce77fb45f362283b371141aad7c
ph1989-06-30d2t08.flac:131af536579de89178c4ffe60264a369