Browse Collections Artists Sources   Search Dates

Add Show    List Management    Help


Grateful Dead 07/13/81
McNichols Sports Arena, Denver, CO
Comments Add Comment    Source Collectors    Add to Collection    Add to Want List    History
Source # 135739 Other Sources
Entered by Matt Vernon
Checksums ffp , flac-md5
Disc Counts 0 / 0
Media Size Compressed: 1.53 GB (1647759360 bytes)
Uncompressed: 2.02 GB (2168804650 bytes)
Date Circulated
Date Added
05/15/2016
05/15/2016
Source Summary flac24; AUD: Nakamichi CM300/CP4 shotguns > unknown lead deck > Sony TC-D5M > Maxell XLII's, FOB(?) recording by Brian Schley. Transfer: MAC > Nakamichi CR-5A > Edirol FA-66 > Wavelab 2448 > CD-Wave (24bit output) > TLH > FLAC 2448 tagged. Transferred by Andrew F. 05/2016 
  Archive
Source Information - Download Text | Download Zip
GRATEFUL DEAD
McNichols Sports Arena
Denver CO
07-13-1981

24bit/48kHz file-set

xxxxx Feel Like a Stranger - Missing
xxxxx They Love Each Other - Missing
s1t01 El Paso
s1t02 Jackaroe >
s1t03 Beat it on Down the Line
s1t04 It Must Have Been the Roses >
s1t05 C.C. Rider
xxxxx Althea - Missing
s1t06 Looks Like Rain
s1t07 Deal

s2t01 Women are Smarter >
s2t02 Scarlet Begonias >
s2t03 Fire on the Mountain
s2t04 Estimated Prophet >
s2t05 Terrapin// (tape flip)
s2t06 Jam
xxxxx Drums - Missing
s2t07 Not Fade Away >
s2t08 Black Peter >
s2t09 Sugar Magnolia
s2t10 Encore: Satisfaction

AUD: Nakamichi CM300/CP4 shotguns > unknown lead deck > Sony
TC-D5M > Maxell XLII's, FOB(?) recording by Brian Schley.

Transfer: MAC > Nakamichi CR-5A > Edirol FA-66 > Wavelab 2448 >
CD-Wave (24bit output) > TLH > FLAC 2448 tagged. Transferred by
Andrew F. 05/2016

Note: Apologies for the missing tunes, it's first AUD in database.
Half-second fades at gaps in case future patch material surfaces.
Thanks Jon Pasternak & Charlie McGuth for organizing this project!

    length     expanded size    cdr  WAVE problems  fmt   ratio  filename
     4:54.173      84721964 B   cxx   --   ---xx   flac  0.7621  gd1981-07-13s1t01.flac
     4:17.467      74150444 B   cxx   --   ---xx   flac  0.7647  gd1981-07-13s1t02.flac
     3:12.427      55418924 B   cxx   --   ---xx   flac  0.7622  gd1981-07-13s1t03.flac
     7:18.720     126351404 B   cxx   --   ---xx   flac  0.7498  gd1981-07-13s1t04.flac
     7:57.187     137429804 B   cxx   --   ---xx   flac  0.7576  gd1981-07-13s1t05.flac
     7:37.840     131857964 B   cxx   --   ---xx   flac  0.7563  gd1981-07-13s1t06.flac
     8:28.466     146438336 B   cxx   --   ---xx   flac  0.7665  gd1981-07-13s1t07.flac
     4:40.800      80870444 B   cxx   --   ---xx   flac  0.7606  gd1981-07-13s2t01.flac
     9:41.360     167431724 B   cxx   --   ---xx   flac  0.7602  gd1981-07-13s2t02.flac
     9:03.080     156407084 B   cxx   --   ---xx   flac  0.7616  gd1981-07-13s2t03.flac
    10:39.747     184247084 B   cxx   --   ---xx   flac  0.7564  gd1981-07-13s2t04.flac
    11:09.400     192787256 B   cxx   --   ---xx   flac  0.7555  gd1981-07-13s2t05.flac
     3:02.053      52431404 B   cxx   --   ---xx   flac  0.7473  gd1981-07-13s2t06.flac
     8:58.320     155036204 B   cxx   --   ---xx   flac  0.7517  gd1981-07-13s2t07.flac
     9:07.733     157747244 B   cxx   --   ---xx   flac  0.7535  gd1981-07-13s2t08.flac
     9:03.747     156599084 B   cxx   --   ---xx   flac  0.7764  gd1981-07-13s2t09.flac
     6:18.049     108878282 B   cxx   --   ---xx   flac  0.7741  gd1981-07-13s2t10.flac
   125:30.569    2168804650 B                            0.7597  (17 files)

No errors occured.



Show Checksums
ffp
gd1981-07-13s1t01.flac:215204b737d1f4331752f4d7cbf9c9dc
gd1981-07-13s1t02.flac:f8a5616edaf5ca87d56058700d045d3e
gd1981-07-13s1t03.flac:2449f5e6c1624a464bc0207bf4fd78dd
gd1981-07-13s1t04.flac:08a68f966fe8d719c094502b618a842b
gd1981-07-13s1t05.flac:22253d428a1063dcdb56d3d24795e804
gd1981-07-13s1t06.flac:e573c59ba36c985bb3783341e81fc030
gd1981-07-13s1t07.flac:a8274e643886568620c4e5c4e499fd65
gd1981-07-13s2t01.flac:c9095e35719f49fd4db6754b9e29f10b
gd1981-07-13s2t02.flac:bc078a2e1b4f1502f18854de7f71648f
gd1981-07-13s2t03.flac:19597c71845883f52fd868e6a81bc324
gd1981-07-13s2t04.flac:a55fcda3eabb40a52c1922500eba4a33
gd1981-07-13s2t05.flac:1d0cf061553fea4ee1455afeef95c473
gd1981-07-13s2t06.flac:1ff16cbd096f04245efb85bd80a6c268
gd1981-07-13s2t07.flac:6da5690833f387a12f96cf5f9063bf63
gd1981-07-13s2t08.flac:cf89d1c5ef9c1e2e22ce282bd04c5228
gd1981-07-13s2t09.flac:461850b6879b6b37f59adbf0e1fe8390
gd1981-07-13s2t10.flac:f14951c189c22a25317fc7dd97a3535b
flac-md5
ee7f6ee2667083fa10317b3e0b59c4c6 *gd1981-07-13s1t01.flac
3e04c1dcd33876881d975c87bdd74989 *gd1981-07-13s1t02.flac
ce4aefc12e94884d54d355e4d3ed5e4b *gd1981-07-13s1t03.flac
71e297ef26f01c389092a6504dbbc029 *gd1981-07-13s1t04.flac
09b321299d1acff9f59138d8322f9869 *gd1981-07-13s1t05.flac
a629216918749b9a23d9de55f2bef917 *gd1981-07-13s1t06.flac
a56f1f6ba221aeaf82b86d834cd67426 *gd1981-07-13s1t07.flac
9644c255cc2f699814493a88b025f623 *gd1981-07-13s2t01.flac
3867d08f5f87ab141eb1d7c88fddde39 *gd1981-07-13s2t02.flac
bb3ad13604b4049b84e104f26213ed4f *gd1981-07-13s2t03.flac
c81d0029d135d48239b02b147809ec83 *gd1981-07-13s2t04.flac
6693ee1c040691885944f9965940fc90 *gd1981-07-13s2t05.flac
2410b4152a4c0f89fe25205952872dd4 *gd1981-07-13s2t06.flac
92ec773a91e009bc85c441523d4cd7b2 *gd1981-07-13s2t07.flac
68b6b3aa30968e42d8c31f790051d6fb *gd1981-07-13s2t08.flac
cf25d0930bb0c18cc5724cdc54881a78 *gd1981-07-13s2t09.flac
70251b3a44e0c6d1963ce8c4411ccfe4 *gd1981-07-13s2t10.flac

Comments
Add Comment
Other Sources (comments)
SBD; via Mike Lai (1) flac16; Recording... (0) flac24; Set 2... (0) flac16; Set 2... (0) flac16; AUD:... (0) flac24; source: SBD;... (0) flac16; source: SBD;... (0) flac16; Source Info:... (0)
Date User Comment