Browse Collections Artists Sources   Search Dates

Add Show    List Management    Help


Grateful Dead 07/13/81
McNichols Sports Arena, Denver, CO
Comments Add Comment    Source Collectors    Add to Collection    Add to Want List    History
Source # 135740 Other Sources
Entered by Matt Vernon
Checksums flac-md5 , ffp
Disc Counts 0 / 0
Media Size Compressed: 825.5 MB (865599488 bytes)
Uncompressed: 1.24 GB (1328393884 bytes)
Date Circulated
Date Added
05/15/2016
05/15/2016
Source Summary flac16; AUD: Nakamichi CM300/CP4 shotguns > unknown lead deck > Sony TC-D5M > Maxell XLII's, FOB(?) recording by Brian Schley. Transfer: MAC > Nakamichi CR-5A > Edirol FA-66 > Wavelab 2448 > CD-Wave (24bit output) > R8Brain > TLH > FLAC 1644 tagged. Transferred by Andrew F. 05/2016 
  Archive
Source Information - Download Text | Download Zip
GRATEFUL DEAD
McNichols Sports Arena
Denver CO
07-13-1981

16bit/44.1kHz file-set

xxxxx Feel Like a Stranger - Missing
xxxxx They Love Each Other - Missing
s1t01 El Paso
s1t02 Jackaroe >
s1t03 Beat it on Down the Line
s1t04 It Must Have Been the Roses >
s1t05 C.C. Rider
xxxxx Althea - Missing
s1t06 Looks Like Rain
s1t07 Deal

s2t01 Women are Smarter >
s2t02 Scarlet Begonias >
s2t03 Fire on the Mountain
s2t04 Estimated Prophet >
s2t05 Terrapin// (tape flip)
s2t06 Jam
xxxxx Drums - Missing
s2t07 Not Fade Away >
s2t08 Black Peter >
s2t09 Sugar Magnolia
s2t10 Encore: Satisfaction

AUD: Nakamichi CM300/CP4 shotguns > unknown lead deck > Sony
TC-D5M > Maxell XLII's, FOB(?) recording by Brian Schley.

Transfer: MAC > Nakamichi CR-5A > Edirol FA-66 > Wavelab 2448 >
CD-Wave (24bit output) > R8Brain > TLH > FLAC 1644 tagged.
Transferred by Andrew F. 05/2016

Note: Apologies for the missing tunes, it's first AUD in database.
Half-second fades at gaps in case future patch material surfaces.
Thanks Jon Pasternak & Charlie McGuth for organizing this project!

    length     expanded size    cdr  WAVE problems  fmt   ratio  filename
     4:54.13       51892220 B   ---   --   ---xx   flac  0.6557  gd1981-07-13s1t01.flac
     4:17.35       45417164 B   ---   --   ---xx   flac  0.6585  gd1981-07-13s1t02.flac
     3:12.32       33944108 B   ---   --   ---xx   flac  0.6551  gd1981-07-13s1t03.flac
     7:18.54       77390252 B   ---   --   ---xx   flac  0.6346  gd1981-07-13s1t04.flac
     7:57.14       84175772 B   ---   --   ---xx   flac  0.6484  gd1981-07-13s1t05.flac
     7:37.63       80763020 B   ---   --   ---xx   flac  0.6459  gd1981-07-13s1t06.flac
     8:28.34       89691212 B   ---   --   ---xx   flac  0.6623  gd1981-07-13s1t07.flac
     4:40.60       49533164 B   ---   --   ---xx   flac  0.6544  gd1981-07-13s2t01.flac
     9:41.27      102551948 B   ---   --   ---xx   flac  0.6519  gd1981-07-13s2t02.flac
     9:03.06       95799356 B   ---   --   ---xx   flac  0.6548  gd1981-07-13s2t03.flac
    10:39.56      112851356 B   ---   --   ---xx   flac  0.6466  gd1981-07-13s2t04.flac
    11:09.30      118082204 B   ---   --   ---xx   flac  0.6455  gd1981-07-13s2t05.flac
     3:02.04       32114252 B   ---   --   ---xx   flac  0.6338  gd1981-07-13s2t06.flac
     8:58.24       94959692 B   ---   --   ---xx   flac  0.6383  gd1981-07-13s2t07.flac
     9:07.55       96620204 B   ---   --   ---xx   flac  0.6406  gd1981-07-13s2t08.flac
     9:03.56       95916956 B   ---   --   ---xx   flac  0.6781  gd1981-07-13s2t09.flac
     6:18.05       66691004 B   ---   --   ---xx   flac  0.6749  gd1981-07-13s2t10.flac
   125:30.43     1328393884 B                            0.6516  (17 files)

No errors occured.



Show Checksums
flac-md5
110b3c864f3eb7e2d167ef7db1ec48ac *gd1981-07-13s1t01.flac
0c8012be8e0d44bc674baa330b6a6dff *gd1981-07-13s1t02.flac
6eba033b54273c43fa1d00639d9b5341 *gd1981-07-13s1t03.flac
db1c0e9886ecad21745a0ff272ccaf0a *gd1981-07-13s1t04.flac
a1b33611890d274fe71f05f5fe683661 *gd1981-07-13s1t05.flac
1b11cb938cf87bce6183acc9b47e0ae2 *gd1981-07-13s1t06.flac
13879226964b00ddcc30da648fbab0c3 *gd1981-07-13s1t07.flac
d43aaf38d655c0acfe9f5abf6325ca6b *gd1981-07-13s2t01.flac
c6030cfcc79e0a42ba8a12d937ada68e *gd1981-07-13s2t02.flac
9586c6f13a99a9ff466fe69dea81993d *gd1981-07-13s2t03.flac
5f65d765b720a2bad262af26fd1c9e84 *gd1981-07-13s2t04.flac
4567bddee5e2336f1dbbe4a62264f914 *gd1981-07-13s2t05.flac
aa32e18ec0cfb1d3c64b7d6e065a3d1a *gd1981-07-13s2t06.flac
f0392c57d1850380d0d1135ae5342c2d *gd1981-07-13s2t07.flac
afd7c0e9e1bf0bb741b35fd2716451d6 *gd1981-07-13s2t08.flac
f2f950a3cc2ce0aa657570263f7e8ed4 *gd1981-07-13s2t09.flac
021f56aac341687eb560fbd5c944d5ed *gd1981-07-13s2t10.flac
ffp
gd1981-07-13s1t01.flac:eb75a37fbfd2fe8a65598be9eeebf423
gd1981-07-13s1t02.flac:45b279a0c72efe98457ca93c917703a1
gd1981-07-13s1t03.flac:de9ef62b6f6c24532dd2477090b053d2
gd1981-07-13s1t04.flac:99de68912980d6432ab70898ec57f655
gd1981-07-13s1t05.flac:56da4eca6778e1245308316ee5d1f066
gd1981-07-13s1t06.flac:c23bf614d38cc0810ef4589584b39c43
gd1981-07-13s1t07.flac:5d9cbb8fb60070eee409179f751d5a0d
gd1981-07-13s2t01.flac:5629491c088939e288119d900fcf58da
gd1981-07-13s2t02.flac:a2e8d8178bd9839612e59fc62c1a437a
gd1981-07-13s2t03.flac:772d35e6336f1a393c695947b82cc29a
gd1981-07-13s2t04.flac:e743ebe8e7482851d56a18e2ff4d4e37
gd1981-07-13s2t05.flac:c259300da4a528ae3fc5526d298e9f10
gd1981-07-13s2t06.flac:f7ab00440554fa4aaa754ef5014d1d67
gd1981-07-13s2t07.flac:f189c363da728891e62df4644aaebe0f
gd1981-07-13s2t08.flac:c0ac5034a698b243959ffa9565148e5c
gd1981-07-13s2t09.flac:dcb1a43baac4bd55529f3a0f73b6e3c7
gd1981-07-13s2t10.flac:3a5815191d974b08707f1847a6625d6a

Comments
Add Comment
Other Sources (comments)
SBD; via Mike Lai (1) flac16; Recording... (0) flac24; Set 2... (0) flac16; Set 2... (0) flac24; AUD:... (0) flac24; source: SBD;... (0) flac16; source: SBD;... (0) flac16; Source Info:... (0)
Date User Comment