Browse Collections Artists Sources   Search Dates

Add Show    List Management    Help


Grateful Dead 08/31/79
Glens Falls Civic Center, Glens Falls, NY
Comments Add Comment    Source Collectors    Add to Collection    Add to Want List    History
Source # 135775 Other Sources
Entered by Matt Vernon
Checksums flac-md5 , ffp
Disc Counts 0 / 0
Media Size Compressed: 1.04 GB (1119664226 bytes)
Date Circulated
Date Added
05/17/2016
05/17/2016
Source Summary flac16; 2 source matrix by dusborne; Soundboard (shnid:92924), Recording Info: SBD -> Cassette Master -> Reel -> Dat (48k),Transfer Info:Dat (Sony R500) -> VXPocket v2 -> Samplitude Professional v10.1 ->Adobe Audition v1.5 -> FLAC; All Transfers and Mastering By Charlie Miller; Audience (shnid:9973)AUD(Nak 300?s)>MC>DAT>CDR>EAC>SHN 
  Archive
Source Information - Download Text | Download Zip
Grateful Dead
August 31, 1979
Civic Center
Glens Falls, NY

2 Source Matrix

Soundboard (shnid:92924)
--------------------------------------------------------------------------------
gd79-08-31.sbd.miller.92924.sbeok.flac16

Recording Info:
SBD -> Cassette Master -> Reel -> Dat (48k)

Transfer Info:
Dat (Sony R500) -> VXPocket v2 -> Samplitude Professional v10.1 ->
Adobe Audition v1.5 -> FLAC (3 Discs Audio / 2 Discs FLAC)

All Transfers and Mastering By Charlie Miller
[email protected]
July 18, 2008

Patch Info:
Nakamichi 300 -> Cassette Master -> Dat -> CD (shnid=9973) supplies:
The Promised Land (0:00 - 0:27)
Peggy-O (4:06 - 4:17)
Minglewood Blues (1:28 - 2:17)
Estimated Prophet (10:36 - end of track)
Eyes Of The World (0:00 - 8:43)

Notes:
-- Set 2 is seamless
-- Thanks to Rob Eaton for lending me his Dats
-- Thanks to Joe B. Jones for his help with the pitch correction

Audience (shnid:9973)
-------------------------------------------------------------------------------
gd79-08-31.nak.glyde.9973.sbeok.shnf

AUD(Nak 300?s)>MC>DAT>CDR>EAC>SHN

Known flaws:
d1t01  splice @ 5:27
MC flip at the end of drums


Eac in secure mode with proper offsets, 100% track quality, no errors.
Shntool used to confirm sector boundries
MKWact was used to convert to shn, seekable.

Convertion/Seeding done 6/02/02 by Glyde ([email protected])


Thanks to Paul for the discs
Another installment of The Music Never Stops Project
----------------------------------------------------------------------------------------------
---Thank you Charlie Miller for your work on the SBD.
---Thank you Rob Eaton for the SBD Dats.
---Thank you Joe B. Jones for the SBD pitch correction
---Thank you Glyde for your work on the AUD.
---Thank you Paul for the AUD discs.
---Thank you XJ32 for the art work.
---Thank you Germain for your advice, encouragement, guidance and seeding.

Matrix by dusborne

05-08-2016
----------------------------------------------------------------------------------------------

Set 1
101 - gd79-08-31s1t01 - Tuning
102 - gd79-08-31s1t02 - The Promised Land
103 - gd79-08-31s1t03 - Dire Wolf
104 - gd79-08-31s1t04 - Cassidy
105 - gd79-08-31s1t05 - Loser
106 - gd79-08-31s1t06 - El Paso
107 - gd79-08-31s1t07 - Peggy-O
108 - gd79-08-31s1t08 - Easy To Love You
109 - gd79-08-31s1t09 - New Minglewood Blues
110 - gd79-08-31s1t10 - Althea
111 - gd79-08-31s1t11 - Lost Sailor ->
112 - gd79-08-31s1t12 - Saint of Circumstance ->
113 - gd79-08-31s1t13 - Deal

Set 2
201 - gd79-08-31s2t01 - Tuning
202 - gd79-08-31s2t02 - Shakedown Street
203 - gd79-08-31s2t03 - Greatest Story Ever Told
204 - gd79-08-31s2t04 - Ship of Fools
205 - gd79-08-31s2t05 - Estimated Prophet ->
206 - gd79-08-31s2t06 - Eyes of The World ->
207 - gd79-08-31s2t07 - Drums ->
208 - gd79-08-31s2t08 - Not Fade Away ->
209 - gd79-08-31s2t09 - Black Peter ->
210 - gd79-08-31s2t10 - Around & Around
-------------------------------------------------------------------------------------
Tagging notes:
Show information is embedded within the header of each flac file.
It will display on any player capable of directly playing flac files.
If converted to wav during processing, all tags will be stripped,
however audio data will remain unaffected.
If you must transcode to a lossy format, do so directly Flac > Lossy.
Use ffp to validate audio integrity.
Md5 values will change if tagging is altered.

Dave Usborne 05-08-2016
------------------------------------------------------------------------------------
length     expanded size    cdr  WAVE problems  fmt   ratio  filename
     1:25.08       15012860 B   ---   --   ---xx   flac  0.6514  gd79-08-31s1t01.flac
     5:53.74       62443292 B   ---   --   ---xx   flac  0.5952  gd79-08-31s1t02.flac
     4:42.66       49900076 B   ---   --   ---xx   flac  0.5875  gd79-08-31s1t03.flac
     6:51.01       72502796 B   ---   --   ---xx   flac  0.5669  gd79-08-31s1t04.flac
     7:20.51       77735996 B   ---   --   ---xx   flac  0.6001  gd79-08-31s1t05.flac
     4:44.19       50142332 B   ---   --   ---xx   flac  0.6006  gd79-08-31s1t06.flac
     8:26.16       89296076 B   ---   --   ---xx   flac  0.6030  gd79-08-31s1t07.flac
     3:51.34       40828412 B   ---   --   ---xx   flac  0.6159  gd79-08-31s1t08.flac
     8:23.35       88811564 B   ---   --   ---xx   flac  0.5820  gd79-08-31s1t09.flac
    10:21.71      109711436 B   ---   --   ---xx   flac  0.5602  gd79-08-31s1t10.flac
     6:01.67       63838028 B   ---   --   ---xx   flac  0.5735  gd79-08-31s1t11.flac
     5:43.44       60608732 B   ---   --   ---xx   flac  0.6136  gd79-08-31s1t12.flac
     5:40.67       60133628 B   ---   --   ---xx   flac  0.6106  gd79-08-31s1t13.flac
     1:20.57       14246108 B   ---   --   ---xx   flac  0.5562  gd79-08-31s2t01.flac
    14:40.07      155248508 B   ---   --   ---xx   flac  0.5986  gd79-08-31s2t02.flac
     6:55.33       73283660 B   ---   --   ---xx   flac  0.5976  gd79-08-31s2t03.flac
     9:03.01       95787596 B   ---   --   ---xx   flac  0.5770  gd79-08-31s2t04.flac
    12:02.31      127433756 B   ---   --   ---xx   flac  0.6036  gd79-08-31s2t05.flac
    13:40.55      144777404 B   ---   --   ---xx   flac  0.6544  gd79-08-31s2t06.flac
     9:11.21       97245836 B   ---   --   ---xx   flac  0.5376  gd79-08-31s2t07.flac
    13:28.28      142597100 B   ---   --   ---xx   flac  0.5886  gd79-08-31s2t08.flac
    10:06.10      106921964 B   ---   --   ---xx   flac  0.5774  gd79-08-31s2t09.flac
     8:10.58       86572460 B   ---   --   ---xx   flac  0.6162  gd79-08-31s2t10.flac
   178:06.29     1885079620 B                            0.5940  (23 files)


Show Checksums
flac-md5
3fd591a2fd4fbe551c10138c2f97403d *gd79-08-31s1t01.flac
58d184b0478565a6f68faaf731c7f4c5 *gd79-08-31s1t02.flac
2e6af217e16c34c09891d49447902b23 *gd79-08-31s1t03.flac
f5fb829f6ade115f598529b48883a3ad *gd79-08-31s1t04.flac
5efb5b6f962ac6d7eb200c1cc4b5ffea *gd79-08-31s1t05.flac
57883a25ee0ab620240ff8d3f6851984 *gd79-08-31s1t06.flac
d23e18e987850dff25c384ee2d4fc41c *gd79-08-31s1t07.flac
684a99108e3fd0f536e126f80273e671 *gd79-08-31s1t08.flac
3a460957ef89b5ea6f1389877e02f2b9 *gd79-08-31s1t09.flac
057ce4a228b525be81bdb6b672a2bbe3 *gd79-08-31s1t10.flac
67eb429e7b1bb1d3de8fb3ec19ff1f75 *gd79-08-31s1t11.flac
c8c89170e298d38db11c24bb25b2b3a4 *gd79-08-31s1t12.flac
0076e57e57473861b5634fb278216af3 *gd79-08-31s1t13.flac
1e968201fb574c6267839fc2fc1b411a *gd79-08-31s2t01.flac
392db35f0bf4fda4b018de9b990d41f5 *gd79-08-31s2t02.flac
8f4e29a7bb46f9b302c92789f80ec0fb *gd79-08-31s2t03.flac
c0f87da4f3b644d94228054a39b5d766 *gd79-08-31s2t04.flac
4ef4a9dac87790c366869e942ed4242d *gd79-08-31s2t05.flac
1572de888069cfcda61461098824debb *gd79-08-31s2t06.flac
f08426eba47d7f96928f89e008633f84 *gd79-08-31s2t07.flac
c92827f32192a294b500f4746b277d53 *gd79-08-31s2t08.flac
f2dc627b490b07e2def759e8c85b0b18 *gd79-08-31s2t09.flac
3c71f1b9ea02800ec34ea798b4abd11f *gd79-08-31s2t10.flac
ffp
gd79-08-31s1t01.flac:c7e7c54caa14bf5f7de200f981b857b2
gd79-08-31s1t02.flac:2befdc96e1ade5eb2107cb1a5b88dbdb
gd79-08-31s1t03.flac:7afb1761d8f7cb461881d350cf5a3ae9
gd79-08-31s1t04.flac:1d213ed039c0322781a64f92a1545dec
gd79-08-31s1t05.flac:f19d81553c9b165ab03293fb2c0cb1ef
gd79-08-31s1t06.flac:81411005e3676957a3fe9a1dac4739b4
gd79-08-31s1t07.flac:61dbef9ad1f94fd33b45802580f841ba
gd79-08-31s1t08.flac:7c0cefcc0b1a60136519ff94c9c80441
gd79-08-31s1t09.flac:5740aaaf70dd1b87b326ed6b6a4b4cad
gd79-08-31s1t10.flac:1ff3347aa94bed423407df993f4c4bbb
gd79-08-31s1t11.flac:f7d592e0b63f83c4f7df296b93977f34
gd79-08-31s1t12.flac:8e0fa1892d39aa8d5ea42b3ca06911a4
gd79-08-31s1t13.flac:fae6d9ee9cc2b06224354c524ec9a891
gd79-08-31s2t01.flac:448ceb42479543d084bb73eabfc7b90d
gd79-08-31s2t02.flac:0cf5ffa7911925aab038269bcc639ade
gd79-08-31s2t03.flac:2ae589f662b317c41604983a6be44549
gd79-08-31s2t04.flac:6950d8877163295333aa586f9e264bb8
gd79-08-31s2t05.flac:bdd15d2801934daf642a97287a67c368
gd79-08-31s2t06.flac:5969ef46f551acd427de440f9c4827e2
gd79-08-31s2t07.flac:499d4fe814a534b01124ade6a4eed694
gd79-08-31s2t08.flac:f76e7e3ede1e07b99b0693fd8a844d97
gd79-08-31s2t09.flac:46a39620373f472216757c96ce8968bf
gd79-08-31s2t10.flac:33e8d83d0aafdf2fd282ab07659ab136

Comments
Add Comment
Other Sources (comments)
AUD(Nak 300's)>MC>DAT>CDR;... (0) flac16; Recording... (0) flac16; AUD: Set... (0)
Date User Comment