Browse Collections Artists Sources   Search Dates

Add Show    List Management    Help


Grateful Dead 07/14/81
McNichols Sports Arena, Denver, CO
Comments Add Comment    Source Collectors    Add to Collection    Add to Want List    History
Source # 135808 Other Sources
Entered by Matt Vernon
Checksums ffp , flac-md5
Disc Counts 0 / 0
Media Size Compressed: 1.04 GB (1120976896 bytes)
Uncompressed: 1.38 GB (1483576580 bytes)
Date Circulated
Date Added
05/21/2016
05/21/2016
Source Summary flac24; AUD: Nakamichi CM100/CP4 shotguns > unknown lead deck > Sony TC-D5M > TDK MA-Metal, FOB(?) recording by Brian Schley. Transfer: MAC > Nakamichi CR-5A > Edirol FA-66 > Wavelab 2448 > CD-Wave (24bit output) > TLH > FLAC 2448 tagged. Transferred by Andrew F. 05/2016 
  Archive
Source Information - Download Text | Download Zip
GRATEFUL DEAD
McNichols Sports Arena
Denver CO
07-14-1981
First Set

24bit/48kHz file-set

s1t01 Cold Rain & Snow >
s1t02 Minglewood Blues
s1t03 Friend of the Devil >
s1t04 Cassidy
s1t05 To Lay Me Down >
s1t06 Me & My Uncle >
s1t07 Mexicali Blues
s1t08 Big Railroad Blues
s1t09 Little Red Rooster
s1t10 Birdsong >
s1t11 Lost Sailor >
s1t12 Saint of Circumstance >
s1t13 Don't Ease Me In

AUD: Nakamichi CM100/CP4 shotguns > unknown lead deck > Sony
TC-D5M > TDK MA-Metal, FOB(?) recording by Brian Schley.

Transfer: MAC > Nakamichi CR-5A > Edirol FA-66 > Wavelab 2448 >
CD-Wave (24bit output) > TLH > FLAC 2448 tagged. Transferred by
Andrew F. 05/2016

Good news: it's a nice upgrade. Bad news: 2nd Set tape is lost  ):
Thanks Jon Pasternak & Charlie McGuth for organizing this project!

    length     expanded size    cdr  WAVE problems  fmt   ratio  filename
     5:49.133     100550444 B   cxx   --   ---xx   flac  0.7677  gd1981-07-14s1t01.flac
     6:50.760     118298924 B   cxx   --   ---xx   flac  0.7647  gd1981-07-14s1t02.flac
     9:06.227     157313324 B   cxx   --   ---xx   flac  0.7660  gd1981-07-14s1t03.flac
     5:12.187      89909804 B   cxx   --   ---xx   flac  0.7774  gd1981-07-14s1t04.flac
     9:06.720     157455404 B   cxx   --   ---xx   flac  0.7540  gd1981-07-14s1t05.flac
     3:01.080      52151084 B   cxx   --   ---xx   flac  0.7715  gd1981-07-14s1t06.flac
     4:42.440      81342764 B   cxx   --   ---xx   flac  0.7727  gd1981-07-14s1t07.flac
     4:13.840      73105964 B   cxx   --   ---xx   flac  0.7503  gd1981-07-14s1t08.flac
     8:21.613     144464684 B   cxx   --   ---xx   flac  0.7428  gd1981-07-14s1t09.flac
    11:58.987     207068204 B   cxx   --   ---xx   flac  0.7413  gd1981-07-14s1t10.flac
     6:42.800     116006444 B   cxx   --   ---xx   flac  0.7351  gd1981-07-14s1t11.flac
     7:25.987     128444204 B   cxx   --   ---xx   flac  0.7534  gd1981-07-14s1t12.flac
     3:19.532      57465332 B   cxx   --   ---xx   flac  0.7546  gd1981-07-14s1t13.flac
    85:51.306    1483576580 B                            0.7556  (13 files)

No errors occured.



Show Checksums
ffp
gd1981-07-14s1t01.flac:61105a7e5c26d42b740cfa8a97a9c1cc
gd1981-07-14s1t02.flac:9c8d0474064a28b9d3b617947673a2c1
gd1981-07-14s1t03.flac:a40a224e9ff3c86a14f7f5d051a5fad3
gd1981-07-14s1t04.flac:4ee0cb43654acc2269c7744f5d88fc2c
gd1981-07-14s1t05.flac:080cf9730b409c2237de154a91c68c01
gd1981-07-14s1t06.flac:f3937bfae85788a1e9be62c284560e48
gd1981-07-14s1t07.flac:83355422d775c86200c761021840699e
gd1981-07-14s1t08.flac:151bcabb5b1663a2d2a1d448f1deb7f8
gd1981-07-14s1t09.flac:3aa3901ece94fc4574e9aee56bbec8e0
gd1981-07-14s1t10.flac:243d1bc848dad6bb772905e3a78ec368
gd1981-07-14s1t11.flac:a2c60c0db0c5ab40573bbcbe91660e59
gd1981-07-14s1t12.flac:0472c7473a6fb63319a11b6914cb1435
gd1981-07-14s1t13.flac:fc3d4272b78681fc1e28b8bd146a104d
flac-md5
a9d0b300e0cb40a076ce72489d362b1e *gd1981-07-14s1t01.flac
c0504cfa57327655ab955a48daeee509 *gd1981-07-14s1t02.flac
989e69d5d78cb9baaad0688f5a55d0cd *gd1981-07-14s1t03.flac
8bfbb18c9e8cfd7b6950dcc5f84a11a4 *gd1981-07-14s1t04.flac
b3816c0af93aadf7bd27a5a1289f3371 *gd1981-07-14s1t05.flac
4d45320164f6d712edf41c89e39f0470 *gd1981-07-14s1t06.flac
cde34d49f360ef499c29dd0645bf45c1 *gd1981-07-14s1t07.flac
0d8228e965976fad2eb8e67d1d75b002 *gd1981-07-14s1t08.flac
561c352a1731565583a7bf6355556188 *gd1981-07-14s1t09.flac
cea4b3f380ad7952426427e45ab598b0 *gd1981-07-14s1t10.flac
7d88c04e57aa42552933be21abfe4c2c *gd1981-07-14s1t11.flac
117f3b57a662d6729503d70cbadf64be *gd1981-07-14s1t12.flac
8956a7dc545aab0398fab4266ae278d0 *gd1981-07-14s1t13.flac

Comments
Add Comment
Other Sources (comments)
AUD>MC>DAT>CDR; via Paul B;... (1) flac16; AUD:... (0)
Date User Comment