Browse Collections Artists Sources   Search Dates

Add Show    List Management    Help


Grateful Dead 07/14/81
McNichols Sports Arena, Denver, CO
Comments Add Comment    Source Collectors    Add to Collection    Add to Want List    History
Source # 135809 Other Sources
Entered by Matt Vernon
Checksums ffp , flac-md5
Disc Counts 0 / 0
Media Size Compressed: 556.73 MB (583778304 bytes)
Uncompressed: 866.6 MB (908691068 bytes)
Date Circulated
Date Added
05/21/2016
05/21/2016
Source Summary flac16; AUD: Nakamichi CM100/CP4 shotguns > unknown lead deck > Sony TC-D5M > TDK MA-Metal, FOB(?) recording by Brian Schley. Transfer: MAC > Nakamichi CR-5A > Edirol FA-66 > Wavelab 2448 > CD-Wave (24bit output) > R8Brain > TLH > FLAC 1644 tagged. Transferred by Andrew F. 05/2016 
  Archive
Source Information - Download Text | Download Zip
GRATEFUL DEAD
McNichols Sports Arena
Denver CO
07-14-1981
First Set

16bit/44.1kHz file-set

s1t01 Cold Rain & Snow >
s1t02 Minglewood Blues
s1t03 Friend of the Devil >
s1t04 Cassidy
s1t05 To Lay Me Down >
s1t06 Me & My Uncle >
s1t07 Mexicali Blues
s1t08 Big Railroad Blues
s1t09 Little Red Rooster
s1t10 Birdsong >
s1t11 Lost Sailor >
s1t12 Saint of Circumstance >
s1t13 Don't Ease Me In

AUD: Nakamichi CM100/CP4 shotguns > unknown lead deck > Sony
TC-D5M > TDK MA-Metal, FOB(?) recording by Brian Schley.

Transfer: MAC > Nakamichi CR-5A > Edirol FA-66 > Wavelab 2448 >
CD-Wave (24bit output) > R8Brain > TLH > FLAC 1644 tagged.
Transferred by Andrew F. 05/2016

Good news: it's a nice upgrade. Bad news: 2nd Set tape is lost  ):
Thanks Jon Pasternak & Charlie McGuth for organizing this project!

    length     expanded size    cdr  WAVE problems  fmt   ratio  filename
     5:49.10       61587164 B   ---   --   ---xx   flac  0.6620  gd1981-07-14s1t01.flac
     6:50.57       72458108 B   ---   --   ---xx   flac  0.6562  gd1981-07-14s1t02.flac
     9:06.17       96354428 B   ---   --   ---xx   flac  0.6582  gd1981-07-14s1t03.flac
     5:12.14       55069772 B   ---   --   ---xx   flac  0.6769  gd1981-07-14s1t04.flac
     9:06.54       96441452 B   ---   --   ---xx   flac  0.6386  gd1981-07-14s1t05.flac
     3:01.06       31942556 B   ---   --   ---xx   flac  0.6678  gd1981-07-14s1t06.flac
     4:42.33       49822460 B   ---   --   ---xx   flac  0.6696  gd1981-07-14s1t07.flac
     4:13.63       44777420 B   ---   --   ---xx   flac  0.6346  gd1981-07-14s1t08.flac
     8:21.46       88484636 B   ---   --   ---xx   flac  0.6224  gd1981-07-14s1t09.flac
    11:58.74      126829292 B   ---   --   ---xx   flac  0.6200  gd1981-07-14s1t10.flac
     6:42.60       71053964 B   ---   --   ---xx   flac  0.6101  gd1981-07-14s1t11.flac
     7:25.74       78672092 B   ---   --   ---xx   flac  0.6398  gd1981-07-14s1t12.flac
     3:19.40       35197724 B   ---   --   ---xx   flac  0.6432  gd1981-07-14s1t13.flac
    85:51.23      908691068 B                            0.6424  (13 files)

No errors occured.



Show Checksums
ffp
gd1981-07-14s1t01.flac:9c50badc9831cfb8d2d3a310c93f09b2
gd1981-07-14s1t02.flac:b4bc74129cf5a02b9e8d38b8221f25a5
gd1981-07-14s1t03.flac:8a432810cfecedb0d0a17b80c0385e15
gd1981-07-14s1t04.flac:2082d13b7483af212601d57a8de50abc
gd1981-07-14s1t05.flac:0b5e4f68c67f535637e6a2315200f0e8
gd1981-07-14s1t06.flac:48360022a32b1e82b3c0972a68962e04
gd1981-07-14s1t07.flac:ca77665bb6ea2bfb74b4bd9159ba07bd
gd1981-07-14s1t08.flac:1d4346e8eb6e6aeb5ac8e76f6a84776e
gd1981-07-14s1t09.flac:3448de7a4b16bac1f083fc34011977b6
gd1981-07-14s1t10.flac:3053cf5ac4fa7cab4ee101dd08623daa
gd1981-07-14s1t11.flac:e2088d91d563628c4b3c3e47afc93290
gd1981-07-14s1t12.flac:09e3b4d987be00a4c7d0b1fe5916b843
gd1981-07-14s1t13.flac:d4b0860fda715804c777b44ddb688269
flac-md5
82a2b2902643c5dd068ea694621b7cd2 *gd1981-07-14s1t01.flac
2ce1e8fefdfb8726221a215650b12051 *gd1981-07-14s1t02.flac
fdebd829661435cdebe7531519c56c56 *gd1981-07-14s1t03.flac
86e93a569c30ad9d1da2ef8e5a4a9ccb *gd1981-07-14s1t04.flac
e7d632a04cfb246f9ad8066fea1155d6 *gd1981-07-14s1t05.flac
5e1cac3e6b7169ee330f9c60f913ade2 *gd1981-07-14s1t06.flac
367f530387a89600fc77ec8a145ae70c *gd1981-07-14s1t07.flac
528c5dd3f880ff0981f11954e3352fc7 *gd1981-07-14s1t08.flac
b7f26ba13edfe087d4479af53a14f4f0 *gd1981-07-14s1t09.flac
0f7bc91d53b28f60eee8afca58c36919 *gd1981-07-14s1t10.flac
7134eafe9dcb9b8f4832147abbe14cb0 *gd1981-07-14s1t11.flac
43b68e5b138a291f1a82db841b4e2797 *gd1981-07-14s1t12.flac
ed9060db08281f048af3f0022e8eaa4b *gd1981-07-14s1t13.flac

Comments
Add Comment
Other Sources (comments)
AUD>MC>DAT>CDR; via Paul B;... (1) flac24; AUD:... (0)
Date User Comment