Browse Collections Artists Sources   Search Dates

Add Show    List Management    Help


Grateful Dead 06/16/91
Giants Stadium, East Rutherford, NJ
Comments Add Comment    Source Collectors    Add to Collection    Add to Want List    History
Source # 135888 Other Sources
Entered by Matt Vernon
Checksums ffp , flac-md5
Disc Counts 0 / 0
Media Size Compressed: 876 MB (918552576 bytes)
Uncompressed: 1.58 GB (1695919888 bytes)
Date Circulated
Date Added
05/30/2016
05/30/2016
Source Summary flac16; (original shnid = 17028) DSBD (DAT)-> Tascam DA-30mkII-> AES-EBU bus-> RME Intelligent 24/96 PAD-> Cool Edit Pro (direct - no edit)-> CDRWin-> Plextor Internal SCSI 12/10/32S by GJF - pitch correction and patches by Kevin Tobin 
  Archive
Source Information - Download Text | Download Zip
Grateful Dead
Giants Stadium,
East Rutherford, NJ
June 16, 1991

Patched and pitch corrected soundboard

Set 1:
d1t01 - Tuning
d1t02 - Picasso Moon
d1t03 - Bertha
d1t04 - Little Red Rooster
d1t05 - Candyman
d1t06 - Memphis Blues
d1t07 - Stagger Lee
d1t08 - Let It Grow

Set 2:
d2t01 - Tuning
d2t02 - Jack Straw->
d2t03 - Crazy Fingers->
d2t04 - China Cat Sunflower->
d2t05 - I Know You Rider->
d2t06 - Drums->
d3t01 - Space->
d3t02 - I Need A Miracle->
d3t03 - Black Peter->
d3t04 - Throwing Stones->
d3t05 - Not Fade Away

Encore:
d3t06 - Box Of Rain

Audio Information:
Original SBD (shnid = 17028)

Source: DSBD->DAT->Tascam DA-30mkII-> AES-EBU bus-> RME Intelligent 24/96 PAD->
Cool Edit Pro (direct - no edit)-> CDRWin-> Plextor Internal SCSI 12/10/32S

Transfer: Re-ripped on Plextor Internal SCSI Ultraplex 40 MAX using EAC
(secure mode w/accurate stream)-> mkwACT v.97-> SHN by GJF

SBD was patched with:
AUD (shnid = 134056)

Recorded, Transferred and Digitally Mastered by Dan Tepper
Thanks Rich B for the B&K 4011 feed, space did not permit running my 414s

Source: B&K 4011 (ORTF) > SONY D10 Pro > Technics SVMD1 DAT
Lineage: Master DAT @ 48kHz > Panasonic SV3700  > 48kHz 16bit Wav > Sample Manager > 44.1kHz 24bit Wav >
Wavelab 8.5 / Izotope Ozone 6.1 / MBit+ Dither > 44.1kHz 16bit wav

---------------------------------------------------------
- Mixed by [email protected]
- FLAC conversion 30-MAY-2016 - Trader Little Helper
- Tagged 30-MAY-2016 - Tag&Rename
---------------------------------------------------------
1st set only needed minor patching and 2nd set was missing over a minute at the start of Drums.
Speedwise the audience was close when compared to other recordings - .250 seconds per minute slow.

Brokedown House Production

    length     expanded size    cdr  WAVE problems  fmt   ratio  filename
     0:39.74        7053692 B   ---   --   -----    wav  1.0000  gd1991-06-16d1t01.wav
     6:52.16       72714476 B   ---   --   -----    wav  1.0000  gd1991-06-16d1t02.wav
     7:29.32       79278908 B   ---   --   -----    wav  1.0000  gd1991-06-16d1t03.wav
    10:48.05      114319004 B   ---   --   -----    wav  1.0000  gd1991-06-16d1t04.wav
     7:51.49       83199692 B   ---   --   -----    wav  1.0000  gd1991-06-16d1t05.wav
     9:34.53      101378300 B   ---   --   -----    wav  1.0000  gd1991-06-16d1t06.wav
     7:49.45       82837484 B   ---   --   -----    wav  1.0000  gd1991-06-16d1t07.wav
    12:30.39      132391772 B   ---   --   -----    wav  1.0000  gd1991-06-16d1t08.wav
     0:37.12        6555068 B   ---   --   -----    wav  1.0000  gd1991-06-16d2t01.wav
     5:56.33       62876060 B   ---   --   -----    wav  1.0000  gd1991-06-16d2t02.wav
     8:32.14       90349772 B   ---   --   -----    wav  1.0000  gd1991-06-16d2t03.wav
     7:00.51       74207996 B   ---   --   -----    wav  1.0000  gd1991-06-16d2t04.wav
     5:52.22       62144588 B   ---   --   -----    wav  1.0000  gd1991-06-16d2t05.wav
    11:54.62      126095468 B   ---   --   -----    wav  1.0000  gd1991-06-16d2t06.wav
    14:00.52      148298348 B   ---   --   -----    wav  1.0000  gd1991-06-16d3t01.wav
     6:02.06       63870956 B   ---   --   -----    wav  1.0000  gd1991-06-16d3t02.wav
    11:32.42      122167628 B   ---   --   -----    wav  1.0000  gd1991-06-16d3t03.wav
     9:17.13       98285420 B   ---   --   -----    wav  1.0000  gd1991-06-16d3t04.wav
    10:48.34      114387212 B   ---   --   -----    wav  1.0000  gd1991-06-16d3t05.wav
     5:03.25       53508044 B   ---   --   -----    wav  1.0000  gd1991-06-16d3t06.wav
   160:14.04     1695919888 B                            1.0000  (20 files)



Show Checksums
ffp
gd1991-06-16d1t01.flac:f30fe5c86dc84064fb91427f64f8701f
gd1991-06-16d1t02.flac:42e39613b74fca59475b83dbcb3f8cc8
gd1991-06-16d1t03.flac:acf8510095c07d89e37d2b2ff9b68362
gd1991-06-16d1t04.flac:68de9886a7b29aaad77a3a2d652b8d89
gd1991-06-16d1t05.flac:1dc01f533236c5c064e9075dd228db43
gd1991-06-16d1t06.flac:22956878d87b76712de57a7663a6a492
gd1991-06-16d1t07.flac:a43205eed986fa80b7741d27146c7ba7
gd1991-06-16d1t08.flac:e52d8ccaea16c0ae53a822fbf49fc45b
gd1991-06-16d2t01.flac:58de7a7d8ea9b1cc80219eb0e5a74b0c
gd1991-06-16d2t02.flac:ff1d43d76132a28bb53ff5d7dd5244e4
gd1991-06-16d2t03.flac:222a48d14695362f9e0293c2d6e7652c
gd1991-06-16d2t04.flac:ff75d93a1bf862be8f010accede35ec7
gd1991-06-16d2t05.flac:b25c8213ccd6a694704144152426ea74
gd1991-06-16d2t06.flac:a810109bfbfdc0c8551fb6006a992973
gd1991-06-16d3t01.flac:3287811c0177a1afe5c7695bcbea7471
gd1991-06-16d3t02.flac:de775dbcb74e6c443020ab0417530f44
gd1991-06-16d3t03.flac:434fff6d1ba3931d595a197c72189837
gd1991-06-16d3t04.flac:eaecd22eeda4077a2d57831ee9349aaf
gd1991-06-16d3t05.flac:afb0a00617b0c1bb1beb72aedfc0d92a
gd1991-06-16d3t06.flac:2cf0451f01ca236b90dfa4ce532459a0
flac-md5
d51a8a875e3c7bf9a7ccdfafa0a87395 *gd1991-06-16d1t01.flac
db65b54ce818b97fce575c5fa75137fd *gd1991-06-16d1t02.flac
a681b01b6407de72d258632d32745806 *gd1991-06-16d1t03.flac
599a994762a7ef90329bd34f3aa7fac7 *gd1991-06-16d1t04.flac
6a70c387b363d7cf64e245bdd3ddb1e6 *gd1991-06-16d1t05.flac
21db96af65bc61ebc820eedb8130de29 *gd1991-06-16d1t06.flac
4c5db720ebee4fe0f59815b3f269df4c *gd1991-06-16d1t07.flac
06fdba1d8e42e50600c3d4eb1057047a *gd1991-06-16d1t08.flac
741e6455d2b998843b74b3f69e402ff8 *gd1991-06-16d2t01.flac
82373ab7a7b18771bc82503e7a68b65c *gd1991-06-16d2t02.flac
444583bc5cddc66ea42ddc920a6bd057 *gd1991-06-16d2t03.flac
1f7835f53f8ce4570fce0c901195ee3c *gd1991-06-16d2t04.flac
cf87add345d0a8a5e1eaba2c1175dffc *gd1991-06-16d2t05.flac
6111ca681d5c2b7e4d2035cda2d02efb *gd1991-06-16d2t06.flac
32e5f0a44949ba69fc487e4f58ca0f8f *gd1991-06-16d3t01.flac
2d1be4548b56cf203318d7a1aab88773 *gd1991-06-16d3t02.flac
ef64d6ec5388210acca86ea91fe1396c *gd1991-06-16d3t03.flac
b50afd950dee0d176ead86fb0080a558 *gd1991-06-16d3t04.flac
ae3cddb549a2468b54f75962549ef368 *gd1991-06-16d3t05.flac
63d6b39717e0905cf1e0cd6fee0b1a3b *gd1991-06-16d3t06.flac

Comments
Add Comment
Other Sources (comments)
SBD > ? > DAT > CDR > WAV... (0) Source: DSBD (DAT)-> Tascam... (0) flac16;... (2) flac16; Master... (0) flac24; Master... (0) flac16; Master... (0) flac16; 2 Source... (0) flac16; Source: B&K... (0) flac16; (original... (0) flac16; Matrix 2... (0) DTS-Audio-CD 5.1... (0) flac16/48kHz; 5.1... (0) flac16; DSDB>clone... (0)
Date User Comment