Browse Collections Artists Sources   Search Dates

Add Show    List Management    Help


Grateful Dead 12/03/79
Uptown Theater, Chicago, IL
Comments Add Comment    Source Collectors    Add to Collection    Add to Want List    History
Source # 135897 Other Sources
Entered by Matt Vernon
Checksums ffp , flac-md5
Disc Counts 0 / 0
Media Size Compressed: 1.17 GB (1260511909 bytes)
Uncompressed: 1.94 GB (2078120064 bytes)
Date Circulated
Date Added
05/31/2016
05/31/2016
Source Summary flac16; 2 source matrix by dusborne; Soundboard (shnid:29434), Recording Info: Set 1: SBD -> Cassette Master (Sony TCD5M/UDXL-II) -> Dat (Panasonic SV3800/48k); Set 2: SBD -> Cassette Master -> Cassette -> Dat -> CD; Transfer Info: Set 1: Dat (Sony D8) -> M-Audio Dio2448 -> Samplitude Professional v8.0 -> FLAC; Set 2: CD -> EAC -> Samplitude Professional v8.0 -> FLAC, Transferred and Edited By Charlie Miller and Audience (shnid:83611),Recording by Ira Frisch: Master Audience Cassette; 2 Sennheiser 421s + Sennheiser 441> Nakamichi 550 Transfer and FLAC encoding by David Minches: Master played back on Nak Dragon> Grace Lunatec V3 (24/96)> Digital Audio Labs Card Deluxe> Adobe Audition> (dither/downsample)> FLAC * from 1st generation cassette from same master; master played back on Nak 550> Nak 250 
  Archive
Source Information - Download Text | Download Zip
Grateful Dead
December 3, 1979
Uptown Theater
Chicago, IL

2 Source Matrix

Soundboard (shnid:29434)
--------------------------------------------------------------------------------
gd79-12-03.sbd.miller.29434.sbeok.flac

Recording Info:
Set 1: SBD -> Cassette Master (Sony TCD5M/UDXL-II) -> Dat (Panasonic
              SV3800/48k)
Set 2: SBD -> Cassette Master -> Cassette -> Dat -> CD

Transfer Info:
Set 1: Dat (Sony D8) -> M-Audio Dio2448 -> Samplitude Professional
v8.0 -> FLAC
Set 2: CD -> EAC -> Samplitude Professional v8.0 -> FLAC
(3 Discs Audio / 2 Discs FLAC)

Transferred and Edited By Charlie Miller
[email protected]t
5/31/05

Notes:
-- The first 16:39 of Set 2 is the same source as Set 1.
-- Seamless transition between discs 2 and 3.
-- I cleaned up the cuts the best I could.

Audience (shnid:83611)
-------------------------------------------------------------------------------
gd1979-12-03.senn-frisch.minches.83611.flac16

Recording by Ira Frisch:
Master Audience Cassette; 2 Sennheiser 421s + Sennheiser 441> Nakamichi 550
Transfer and FLAC encoding by David Minches:
Master played back on Nak Dragon> Grace Lunatec V3 (24/96)>
Digital Audio Labs Card Deluxe> Adobe Audition> (dither/downsample)> FLAC encoding
* from 1st generation cassette from same master; master played back on Nak 550> Nak 250
----------------------------------------------------------------------------------------------------
---Thank you Charlie Miller for your work on the SBD.
---Thank you Frisch for recording the show.
---Thank you David Minches for the AUD transfer.
---Thank you XJ32 for the art work.
---Thank you Germain for your advice, encouragement, guidance and seeding.

Matrix by dusborne 05-09-2016

---------------------------------------------------------------------------------------------------

Set 1
101 - gd79-12-03s1t01 - Tuning
102 - gd79-12-03s1t02 - Alabama Getaway ->
103 - gd79-12-03s1t03 - Promised Land
104 - gd79-12-03s1t04 - Brown Eyed Women
105 - gd79-12-03s1t05 - El Paso
106 - gd79-12-03s1t06 - Ramble on Rose
107 - gd79-12-03s1t07 - It's All Over Now
108 - gd79-12-03s1t08 - Jack-A-Roe
109 - gd79-12-03s1t09 - Lazy Lightning ->
110 - gd79-12-03s1t10 - Supplication
111 - gd79-12-03s1t11 - Althea
112 - gd79-12-03s1t12 - The Music Never Stopped

Set 2
201 - gd79-12-03s2t01 - Scarlet Begonias ->
202 - gd79-12-03s2t02 - Fire On The Mountain
203 - gd79-12-03s2t03 - Samson & Delilah
204 - gd79-12-03s2t04 - Terrapin Station ->
205 - gd79-12-03s2t05 - Playin' In The Band ->
206 - gd79-12-03s2t06 - Drums ->
207 - gd79-12-03s2t07 - Space ->
208 - gd79-12-03s2t08 - Lost Sailor ->
209 - gd79-12-03s2t09 - Saint of Circumstance->
210 - gd79-12-03s2t10 - Wharf Rat ->
211 - gd79-12-03s2t11 - Truckin'

Encore
212 - gd79-12-03s2t12 - Johnny B. Goode
-------------------------------------------------------------------------------------
Tagging notes:
Show information is embedded within the header of each flac file.
It will display on any player capable of directly playing flac files.
If converted to wav during processing, all tags will be stripped,
however audio data will remain unaffected.
If you must transcode to a lossy format, do so directly Flac > Lossy.
Use ffp to validate audio integrity.
Md5 values will change if tagging is altered.

Dave Usborne 05-09-2016
------------------------------------------------------------------------------------
length     expanded size    cdr  WAVE problems  fmt   ratio  filename
     0:31.31        5541356 B   ---   --   ---xx   flac  0.5526  gd79-12-03s1t01.flac
     6:34.65       69654524 B   ---   --   ---xx   flac  0.6662  gd79-12-03s1t02.flac
     5:06.30       54049004 B   ---   --   ---xx   flac  0.6629  gd79-12-03s1t03.flac
     6:36.09       69875612 B   ---   --   ---xx   flac  0.6324  gd79-12-03s1t04.flac
     5:59.17       63367628 B   ---   --   ---xx   flac  0.6123  gd79-12-03s1t05.flac
     8:43.46       92365436 B   ---   --   ---xx   flac  0.6243  gd79-12-03s1t06.flac
     9:37.22      101834588 B   ---   --   ---xx   flac  0.6494  gd79-12-03s1t07.flac
     7:07.02       75327548 B   ---   --   ---xx   flac  0.5923  gd79-12-03s1t08.flac
     3:16.25       34633244 B   ---   --   ---xx   flac  0.6533  gd79-12-03s1t09.flac
     7:23.16       78182876 B   ---   --   ---xx   flac  0.6261  gd79-12-03s1t10.flac
    12:34.37      133092668 B   ---   --   ---xx   flac  0.6041  gd79-12-03s1t11.flac
     8:17.45       87776684 B   ---   --   ---xx   flac  0.6325  gd79-12-03s1t12.flac
    11:44.60      124326764 B   ---   --   ---xx   flac  0.6232  gd79-12-03s2t01.flac
    15:37.10      165310364 B   ---   --   ---xx   flac  0.6076  gd79-12-03s2t02.flac
     8:55.59       94512812 B   ---   --   ---xx   flac  0.5827  gd79-12-03s2t03.flac
    13:53.70      147105884 B   ---   --   ---xx   flac  0.5765  gd79-12-03s2t04.flac
    12:40.24      134120492 B   ---   --   ---xx   flac  0.6076  gd79-12-03s2t05.flac
    10:43.58      113561660 B   ---   --   ---xx   flac  0.5423  gd79-12-03s2t06.flac
     2:32.70       26977484 B   ---   --   ---xx   flac  0.5011  gd79-12-03s2t07.flac
     6:45.35       71524364 B   ---   --   ---xx   flac  0.5816  gd79-12-03s2t08.flac
     6:03.53       64157900 B   ---   --   ---xx   flac  0.6181  gd79-12-03s2t09.flac
    10:52.25      115071644 B   ---   --   ---xx   flac  0.5584  gd79-12-03s2t10.flac
     9:55.27      105021548 B   ---   --   ---xx   flac  0.6194  gd79-12-03s2t11.flac
     4:47.43       50727980 B   ---   --   ---xx   flac  0.6181  gd79-12-03s2t12.flac
   196:20.54     2078120064 B                            0.6066  (24 files)


Show Checksums
ffp
gd79-12-03s1t01.flac:256235f5160adc9d961000e1136fa93a
gd79-12-03s1t02.flac:e65f35b935b38606a632d9cfabdd4fb2
gd79-12-03s1t03.flac:a0b269900b23fbd6226ea442e43ed8c3
gd79-12-03s1t04.flac:cbf92db84a531bd30977ddabd03c30e3
gd79-12-03s1t05.flac:3d3845c1298b992d092151a5060d2c60
gd79-12-03s1t06.flac:b79a5dfc5c748f41c7113f5d059fe417
gd79-12-03s1t07.flac:51b25d551cde248075efb1948f67f2e6
gd79-12-03s1t08.flac:0de6be24c174b6875d8ed3852af4c504
gd79-12-03s1t09.flac:494c42fb528984c2eb15538bcf1ee648
gd79-12-03s1t10.flac:4e4396a4b98dc328e282bddcf34a67f4
gd79-12-03s1t11.flac:3b57cc6d81aa8722de9e35e2b9a18fc6
gd79-12-03s1t12.flac:37c007d68031a147a1a7ba73467ec0d2
gd79-12-03s2t01.flac:d17db095d00fe9dd5790f9975cce536e
gd79-12-03s2t02.flac:2a11fe340641eec1e70157edff15230e
gd79-12-03s2t03.flac:bcd3de653f6e8cbad13b1ca4f374afdb
gd79-12-03s2t04.flac:3a1fe1d95da48867a113cb022583479d
gd79-12-03s2t05.flac:c82fa891a992efe873154df062a9b50e
gd79-12-03s2t06.flac:f7cfcd1518a4f1c0d0ca3613d69bcab1
gd79-12-03s2t07.flac:a655fc231f95e4775e837b097aebecba
gd79-12-03s2t08.flac:037f8b572e1b38284a9b71e310fb00b7
gd79-12-03s2t09.flac:c619d3bfb083e38a6370d90884e86b26
gd79-12-03s2t10.flac:adf1ca632f565b9c582fe7eb802b8878
gd79-12-03s2t11.flac:066726a8a37d6a93ac86f6bf41906e9d
gd79-12-03s2t12.flac:09bad03d78f34273f7090165f7f469fd
flac-md5
e661bd7d7a89c6bac6c1a1a7d3b18910 *gd79-12-03s1t01.flac
f96accefd776c819f62d7633f4e13f96 *gd79-12-03s1t02.flac
ccbeae9bc0418340b006123c64280dee *gd79-12-03s1t03.flac
e36d5708c3989b871adf59866e8f7f7a *gd79-12-03s1t04.flac
cf9d6da52c945c535a3618a84d4a3a55 *gd79-12-03s1t05.flac
2224f8403f259c5f12a73bacf7d15cd8 *gd79-12-03s1t06.flac
1578b36eeedc3ea241da443b67c7a219 *gd79-12-03s1t07.flac
779eb9e617b7aff6a29db147f9eb6aff *gd79-12-03s1t08.flac
a9414d1a2802140497e59c6091d3480f *gd79-12-03s1t09.flac
620fe6d49439d79bda6b152261ff8737 *gd79-12-03s1t10.flac
a6fbf0182475339052cb809fc62d28f5 *gd79-12-03s1t11.flac
d126fe7703f8934883ea2472fc4588d6 *gd79-12-03s1t12.flac
c14b85b1bb76512505f5a89f65cec2d6 *gd79-12-03s2t01.flac
e463182ddf4b0583b865fb52be28d3d9 *gd79-12-03s2t02.flac
702152112c9492122d27ab3e16acad46 *gd79-12-03s2t03.flac
49e29396b46435573cc59ec45c6bed75 *gd79-12-03s2t04.flac
8c9183f4eb2efdadfd37ed191251b5a5 *gd79-12-03s2t05.flac
c6a350616ee9f919107446fa9d05ff64 *gd79-12-03s2t06.flac
57010e4cf3f5fd33ba122f37f19614f2 *gd79-12-03s2t07.flac
49f4688a6da1ae95866cb428d734c08e *gd79-12-03s2t08.flac
9c4e82f7f9dae3c8119e3ecf1751c843 *gd79-12-03s2t09.flac
d268a22f9327d3f69eb641ff8d03eb22 *gd79-12-03s2t10.flac
11e2dd679632b194ab6a432fb2d6ae13 *gd79-12-03s2t11.flac
29cdd9e8cbe3776ad2cf0faee3182c6d *gd79-12-03s2t12.flac

Comments
Add Comment
Other Sources (comments)
SBD > Cassette Master > C0... (1) "analog> PCMWAVs very close... (1) flac16; Set 1: SBD... (0) flac16; Recording by... (0)
Date User Comment