Browse Collections Artists Sources   Search Dates

Add Show    List Management    Help


Grateful Dead 12/04/79
Uptown Theater, Chicago, IL
Comments Add Comment    Source Collectors    Add to Collection    Add to Want List    History
Source # 135898 Other Sources
Entered by Matt Vernon
Checksums flac-md5 , ffp
Disc Counts 0 / 0
Media Size Compressed: 1.01 GB (1089108398 bytes)
Uncompressed: 1.76 GB (1890794980 bytes)
Date Circulated
Date Added
05/31/2016
05/31/2016
Source Summary flac16; 2 source matrix by dusborne;Soundboard (shnid:34937), Master Soundboard Cassette -> Cassette -> DAT -> CD -> EAC -> SHN; Audience (shnid:83593), Recording by Ira Frisch:Master Audience Cassette; 2 Sennheiser 421s + Sennheiser 441> Nakamichi 550Transfer and FLAC encoding by David Minches:Master played back on Nak Dragon> Grace Lunatec V3 (24/96)> Digital Audio Labs Card Deluxe> Adobe Audition> (dither/downsample)> FLAC encoding 
  Archive
Source Information - Download Text | Download Zip
Grateful Dead
December 4, 1979
Uptown Theater
Chicago, IL

2 Source Matrix

Soundboard (shnid:34937)
--------------------------------------------------------------------------------
gd1979-12-04.sbd.clugston.tetzeli.fix-2535.34937.reflac.flac

lineage:
Master Soundboard Cassette -> Cassette -> DAT -> CD -> EAC -> SHN
conversion by Scott Clugston

Seeded to Etree 1/15/00 by AJ - [email protected] - Enjoy!

Fix of shnid 2535

I made the transition between CDs 2 and 3 seamless.  The jam after Franklin's was
actually on d2t05, that's been updated in the info text.  d3t01 was merged into d2t06.
Resulting SBEs were cleaned up using shntool.  Nonseekable SHNs were converted to FLAC.

Fade tracks were added to the end of CD 2 and the beginning of CD 3 for those wishing to
burn to CD.  For seamless playback simply remove the fade tracks.

known flaws:
Static (from SBDMC) in d1t3 0:32-0:35, 2:06
Static (from SBDMC) in d1t6 3:30-3:33, 4:01

Special thanks to Scott Clugston for helping get this seed out.

Audience (shnid:83593)
-------------------------------------------------------------------------------
gd1979-12-04.frisch.minches.83593.flac16

Recording by Ira Frisch:
Master Audience Cassette; 2 Sennheiser 421s + Sennheiser 441> Nakamichi 550
Transfer and FLAC encoding by David Minches:
Master played back on Nak Dragon> Grace Lunatec V3 (24/96)>
Digital Audio Labs Card Deluxe> Adobe Audition> (dither/downsample)> FLAC encoding
----------------------------------------------------------------------------------------
---Thank you Scott Clugston for your work on the SBD.
---Thank you Bill Tetzeli for your work on the SBD.
---Thank you Ira Frisch for recording the show.
---Thank you David Minches for the AUD transfer.
---Thank you XJ32 for the art work.
---Thank you Germain for your advice, encouragement, guidance and seeding.

Matrix by dusborne 05-11-2016

---------------------------------------------------------------------------------------------------

Set 1

101 - gd79-12-04s1t01 - Tuning
102 - gd79-12-04s1t02 - Jack Straw
103 - gd79-12-04s1t03 - Peggy-O
104 - gd79-12-04s1t04 - Mama Tried ->
105 - gd79-12-04s1t05 - Mexicali Blues
106 - gd79-12-04s1t06 - They Love Each Other
107 - gd79-12-04s1t07 - New Minglewood Blues
108 - gd79-12-04s1t08 - Stagger Lee
109 - gd79-12-04s1t09 - Passenger->
110 - gd79-12-04s1t10 - Deal

Set 2

201 - gd79-12-04s2t01 - Tuning
202 - gd79-12-04s2t02 - China Cat Sunflower ->
203 - gd79-12-04s2t03 - I Know You Rider
204 - gd79-12-04s2t04 - Looks Like Rain
205 - gd79-12-04s2t05 - Estimated Prophet ->
206 - gd79-12-04s2t06 - Franklin's Tower ->
207 - gd79-12-04s2t07 - Jam ->
208 - gd79-12-04s2t08 - Drums ->
209 - gd79-12-04s2t09 - Space ->
210 - gd79-12-04s2t10 - Not Fade Away ->
211 - gd79-12-04s2t11 - Stella Blue ->
212 - gd79-12-04s2t12 - Sugar Magnolia

Encore
213 - gd79-12-04s2t13 - U.S. Blues
----------------------------------------------------------------------------------------------

Tagging notes:
Show information is embedded within the header of each flac file.
It will display on any player capable of directly playing flac files.
If converted to wav during processing, all tags will be
stripped, however audio data will remain unaffected.
If you must transcode to a lossy format, do so directly Flac > Lossy.
Use st5 to validate audio integrity.
Md5 values will change if tagging is altered.
Dave Usborne 05-11-2016
-------------------------------------------------------------------------------------------
length     expanded size    cdr  WAVE problems  fmt   ratio  filename
     1:19.45       14041484 B   ---   --   ---xx   flac  0.5288  gd79-12-04s1t01.flac
     8:17.27       87734348 B   ---   --   ---xx   flac  0.5840  gd79-12-04s1t02.flac
     8:51.31       93741356 B   ---   --   ---xx   flac  0.5432  gd79-12-04s1t03.flac
     2:49.22       29863388 B   ---   --   ---xx   flac  0.6006  gd79-12-04s1t04.flac
     6:44.74       71439692 B   ---   --   ---xx   flac  0.5817  gd79-12-04s1t05.flac
     9:44.04      103027052 B   ---   --   ---xx   flac  0.5643  gd79-12-04s1t06.flac
     8:47.44       93066332 B   ---   --   ---xx   flac  0.5923  gd79-12-04s1t07.flac
    10:20.72      109537388 B   ---   --   ---xx   flac  0.5930  gd79-12-04s1t08.flac
     5:08.67       54488828 B   ---   --   ---xx   flac  0.6352  gd79-12-04s1t09.flac
     5:08.50       54448844 B   ---   --   ---xx   flac  0.6109  gd79-12-04s1t10.flac
     0:50.18        8862380 B   ---   --   ---xx   flac  0.4925  gd79-12-04s2t01.flac
     7:10.04       75861452 B   ---   --   ---xx   flac  0.5713  gd79-12-04s2t02.flac
     7:03.06       74631356 B   ---   --   ---xx   flac  0.6018  gd79-12-04s2t03.flac
    12:56.42      136985228 B   ---   --   ---xx   flac  0.5469  gd79-12-04s2t04.flac
    11:56.58      126438860 B   ---   --   ---xx   flac  0.5892  gd79-12-04s2t05.flac
    14:02.31      148601756 B   ---   --   ---xx   flac  0.5898  gd79-12-04s2t06.flac
     7:07.09       75344012 B   ---   --   ---xx   flac  0.5773  gd79-12-04s2t07.flac
     8:40.07       91744508 B   ---   --   ---xx   flac  0.5242  gd79-12-04s2t08.flac
     6:07.32       64814108 B   ---   --   ---xx   flac  0.4661  gd79-12-04s2t09.flac
     9:32.38      100990220 B   ---   --   ---xx   flac  0.6031  gd79-12-04s2t10.flac
     9:10.23       97074140 B   ---   --   ---xx   flac  0.5360  gd79-12-04s2t11.flac
    10:54.39      115457372 B   ---   --   ---xx   flac  0.6250  gd79-12-04s2t12.flac
     5:54.66       62600876 B   ---   --   ---xx   flac  0.5969  gd79-12-04s2t13.flac
   178:38.59     1890794980 B                            0.5760  (23 files)

Show Checksums
flac-md5
329ac32a9a9f509b0bb7f76778968c96 *gd79-12-04s1t01.flac
0d0e64adea80be26a0fbaef77bd153b5 *gd79-12-04s1t02.flac
44324a304e8fd780a6de9b6ae8fc008d *gd79-12-04s1t03.flac
6c0b2e72fecb9aa3e1909d12c438a6ca *gd79-12-04s1t04.flac
17fb3f98cd6b3319be7ad6b486d94307 *gd79-12-04s1t05.flac
2fb8e8dc4f2ed85aa6280358d3d6cebb *gd79-12-04s1t06.flac
94bb7d8ed36cbe909b4f4c06233fe669 *gd79-12-04s1t07.flac
d91c777736fef34159218a13ab23fd42 *gd79-12-04s1t08.flac
2c3ab62ad78b3f67b940ffbfe02c6986 *gd79-12-04s1t09.flac
07b644939a171f5037b720a66e2aa7fb *gd79-12-04s1t10.flac
a1293948897253d7301a3fe477b27532 *gd79-12-04s2t01.flac
8de985d187f654bd79b007ebe48e4091 *gd79-12-04s2t02.flac
21d74fe620a68cdb0dcb7714aacc1b63 *gd79-12-04s2t03.flac
47562ecac94fc58825d3bb7ea7304208 *gd79-12-04s2t04.flac
cf4e9b801a9cf9515b12d1584b4851b4 *gd79-12-04s2t05.flac
866f644562213ae51754815afe345e56 *gd79-12-04s2t06.flac
674e7e4b04e7819ef941480e700eb83a *gd79-12-04s2t07.flac
726582ebbeca3af7a8619173eeb6dbec *gd79-12-04s2t08.flac
1be7034303b7bfaa69709c3bd236ce3a *gd79-12-04s2t09.flac
725acbd0166dc820a44e77b457e2748b *gd79-12-04s2t10.flac
cf040d2f787a4eed8b77045bcbc51eef *gd79-12-04s2t11.flac
788646d9a82a698644f02201629580cf *gd79-12-04s2t12.flac
eaf6449142777a258565d2a387770729 *gd79-12-04s2t13.flac
ffp
gd79-12-04s1t01.flac:c87e7403e67335cc42d978d72d88dc1d
gd79-12-04s1t02.flac:49c2abb5f2e5c3cfb86fe4242afb931e
gd79-12-04s1t03.flac:174cce759c83de690a63d00bca7183ba
gd79-12-04s1t04.flac:a703e342fe568720b9c727873a77fb1a
gd79-12-04s1t05.flac:deab0566318ffb7c1de659318ee31b42
gd79-12-04s1t06.flac:b0f4cd3a5eb5e4ecb2e7b0541e30f501
gd79-12-04s1t07.flac:08cac81f0f7bc6053c82e7e68cb6c121
gd79-12-04s1t08.flac:a05a4d58ce369a8b5d196840e8c303fa
gd79-12-04s1t09.flac:8eacf8c9f5f4de478a74fc219bee6370
gd79-12-04s1t10.flac:6111c5b5fe01683918148d39460aa827
gd79-12-04s2t01.flac:f8135fe2e08c710d2a7ac9db8cfa07bc
gd79-12-04s2t02.flac:2f9640b6de1621f5ca971afeef9f265f
gd79-12-04s2t03.flac:4f11cd7b9c5f92dd92744430038205a2
gd79-12-04s2t04.flac:02e17ce82e69ac0f01c589a23c568dbb
gd79-12-04s2t05.flac:c14c55187c91e997e0e5035d42724f6a
gd79-12-04s2t06.flac:de31f73852e042505c8db310446d980d
gd79-12-04s2t07.flac:9387e3668795a67f451cb80471bb2560
gd79-12-04s2t08.flac:1397f802a35b0241f557229af2e6fab1
gd79-12-04s2t09.flac:2976603ebaab88c271157e71b5f43a4f
gd79-12-04s2t10.flac:2f4988442fb2268d1b4f7857a4089db3
gd79-12-04s2t11.flac:eacef59aa4ef68caffc940a2227c00b1
gd79-12-04s2t12.flac:4bfa555b7445d48cfe7d83e296d5545e
gd79-12-04s2t13.flac:ca5ba50ef67568d3535d373bf65c605c

Comments
Add Comment
Other Sources (comments)
Master Soundboard Cassette... (2) flac16; lineage:... (1) flac16; Recording by... (0) flac16; Recording... (0)
Date User Comment