Browse Collections Artists Sources   Search Dates

Add Show    List Management    Help


Garcia 10/31/81
The Tower Theatre, Upper Darby, PA
Comments Add Comment    Source Collectors    Add to Collection    Add to Want List    History
Source # 135931 Other Sources
Entered by Joe Jupille
Checksums jgb1981-10-31.md5 , jgb1981-10-31.ffp
Disc Counts 0 / 0
Media Size Compressed: 1.05 GB (1129185280 bytes)
Uncompressed: 1.41 GB (1514908270 bytes)
Date Circulated
Date Added
06/05/2016
06/05/2016
Source Summary JGB; early; flac2448; Stankiewicz & Schley, Beyers mics > patched thru Sony D5 > Sony TC-D5 > Maxell MX-90, front of balcony(?). Transfer: MAC > Nakamichi CR-5A > Edirol FA-66 > Wavelab 2448 > CD-Wave (24bit output) > TLH > FLAC 2448 tagged. Transferred by Andrew F. 06/2016 
Source Information - Download Text | Download Zip
JERRY GARCIA BAND
Tower Theater
Philadelphia PA
10-31-1981
Early Show

24bit/48kHz file-set

01 How Sweet It Is
02 Catfish John
03 That's What Love Will Make You Do
04 Simple Twist of Fate
05 Knockin' on Heaven's Door
06 Roadrunner
07 Deal >
08 Tangled Up in Blue

AUD: Beyers mics > patched thru Sony D5 > Sony TC-D5 > Maxell
MX-90, front of balcony(?), recording by Stankiewicz & Schley.

Transfer: MAC > Nakamichi CR-5A > Edirol FA-66 > Wavelab 2448 >
CD-Wave (24bit output) > TLH > FLAC 2448 tagged. Transferred by
Andrew F. 06/2016

Note: Lineage is noted as best as can be recalled at this time...
ID-88958 patch How Sweet 0:00 > 0:11. Big mic-bumps TWLWMYD 10:41.
Thanks Jon Pasternak & Charlie McGuth for organizing this project!


    length     expanded size    cdr  WAVE problems  fmt   ratio  filename
     8:54.227     153857324 B   cxx   --   ---xx   flac  0.7566  jgb1981-10-31t01.flac
    11:20.453     195970604 B   cxx   --   ---xx   flac  0.7451  jgb1981-10-31t02.flac
    11:01.067     190387244 B   cxx   --   ---xx   flac  0.7534  jgb1981-10-31t03.flac
    13:32.947     234128684 B   cxx   --   ---xx   flac  0.7139  jgb1981-10-31t04.flac
    16:00.000     276480044 B   cxx   --   ---xx   flac  0.7339  jgb1981-10-31t05.flac
     8:56.213     154429484 B   cxx   --   ---xx   flac  0.7609  jgb1981-10-31t06.flac
     8:06.987     140252204 B   cxx   --   ---xx   flac  0.7619  jgb1981-10-31t07.flac
     9:48.204     169402682 B   cxx   --   ---xx   flac  0.7607  jgb1981-10-31t08.flac
    87:40.097    1514908270 B                            0.7454  (8 files)

No errors occured.


Show Checksums
jgb1981-10-31.md5
001d491403a48978e6ed4fb15668531a *jgb1981-10-31t01.flac
31187cd07e2fd7c09fa0f5a69717051d *jgb1981-10-31t02.flac
d7b33e9b6b17c1620e6d30c74b37414d *jgb1981-10-31t03.flac
d6a3bb1e3fc31d3c7dc8a229d367ccbc *jgb1981-10-31t04.flac
18548a28c5bee0b1b2d1079e39130aa7 *jgb1981-10-31t05.flac
e9313698d342142ba81a829a9190af1a *jgb1981-10-31t06.flac
b4cc8e8924cd509c0ddac1352c0dafd4 *jgb1981-10-31t07.flac
e799bb61433d407ca9065fce1d77b969 *jgb1981-10-31t08.flac
jgb1981-10-31.ffp
jgb1981-10-31t01.flac:7f6eb5313e32520dd438ffbb39979719
jgb1981-10-31t02.flac:06c8b773239a7f3431071235399865f5
jgb1981-10-31t03.flac:55e74560571a4ef0cb99baf3d1e12472
jgb1981-10-31t04.flac:7c9ac3c92760cfd84b41a22712ceff66
jgb1981-10-31t05.flac:1e2b1dfd3822abf3f6426965dd012982
jgb1981-10-31t06.flac:f499f24ea0da7e29aa7858cba1923774
jgb1981-10-31t07.flac:c9c4aa62ad408a8111554334979f8619
jgb1981-10-31t08.flac:940cd42f903eede100c0a088b875a124

Comments
Add Comment
Other Sources (comments)
JGB, early & late: John... (0) JGB; early; flac16;... (0)
Date User Comment