Browse Collections Artists Sources   Search Dates

Add Show    List Management    Help


Garcia 10/31/81
The Tower Theatre, Upper Darby, PA
Comments Add Comment    Source Collectors    Add to Collection    Add to Want List    History
Source # 135932 Other Sources
Entered by Joe Jupille
Checksums jgb1981-10-31.md5 , jgb1981-10-31.ffp
Disc Counts 0 / 0
Media Size Compressed: 555.39 MB (582369280 bytes)
Uncompressed: 884.9 MB (927883168 bytes)
Date Circulated
Date Added
06/05/2016
06/05/2016
Source Summary JGB; early; flac16; Stankiewicz & Schley, Beyers mics > patched thru Sony D5 > Sony TC-D5 > Maxell MX-90, front of balcony(?). Transfer: MAC > Nakamichi CR-5A > Edirol FA-66 > Wavelab 2448 > CD-Wave (24bit output) > R8Brain > TLH > FLAC 1644 tagged. Transferred by Andrew F. 06/2016 
Source Information - Download Text | Download Zip
JERRY GARCIA BAND
Tower Theater
Philadelphia PA
10-31-1981
Early Show

16bit/44.1kHz file-set

01 How Sweet It Is
02 Catfish John
03 That's What Love Will Make You Do
04 Simple Twist of Fate
05 Knockin' on Heaven's Door
06 Roadrunner
07 Deal >
08 Tangled Up in Blue

AUD: Beyers mics > patched thru Sony D5 > Sony TC-D5 > Maxell
MX-90, front of balcony(?), recording by Stankiewicz & Schley.

Transfer: MAC > Nakamichi CR-5A > Edirol FA-66 > Wavelab 2448 >
CD-Wave (24bit output) > R8Brain > TLH > FLAC 1644 tagged.
Transferred by Andrew F. 06/2016

Note: Lineage is noted as best as can be recalled at this time...
ID-88958 patch How Sweet 0:00 > 0:11. Big mic-bumps TWLWMYD 10:41.
Thanks Jon Pasternak & Charlie McGuth for organizing this project!


    length     expanded size    cdr  WAVE problems  fmt   ratio  filename
     8:54.17       94237628 B   ---   --   ---xx   flac  0.6465  jgb1981-10-31t01.flac
    11:20.34      120032012 B   ---   --   ---xx   flac  0.6270  jgb1981-10-31t02.flac
    11:01.05      116612204 B   ---   --   ---xx   flac  0.6401  jgb1981-10-31t03.flac
    13:32.71      143403836 B   ---   --   ---xx   flac  0.5765  jgb1981-10-31t04.flac
    16:00.00      169344044 B   ---   --   ---xx   flac  0.6093  jgb1981-10-31t05.flac
     8:56.16       94588076 B   ---   --   ---xx   flac  0.6526  jgb1981-10-31t06.flac
     8:06.74       85904492 B   ---   --   ---xx   flac  0.6538  jgb1981-10-31t07.flac
     9:48.16      103760876 B   ---   --   ---xx   flac  0.6530  jgb1981-10-31t08.flac
    87:40.08      927883168 B                            0.6276  (8 files)

No errors occured.


Show Checksums
jgb1981-10-31.md5
8a4173b45c2530e41b3a9c96bf026eca *jgb1981-10-31t01.flac
4569a79a7b5fdb44f4dbe41c889b556a *jgb1981-10-31t02.flac
013676954302a4c7058491c3253c7b4d *jgb1981-10-31t03.flac
d7c7a603cfa34e0242379ffcd2494afc *jgb1981-10-31t04.flac
850f0681caebddbec9fecb507645a332 *jgb1981-10-31t05.flac
f39e1e93129d3b7ac05921e7e0c156cb *jgb1981-10-31t06.flac
20a9c179064b181f17c9b951d817cb84 *jgb1981-10-31t07.flac
be51b1bcccd24c8a66c72dee9f38d031 *jgb1981-10-31t08.flac
jgb1981-10-31.ffp
jgb1981-10-31t01.flac:7d8dd094183971f2078be9a681fea8f7
jgb1981-10-31t02.flac:bec59b1dee67aa448b111246b1f3fe8c
jgb1981-10-31t03.flac:aa88ae85d14bf11efc251f508b1b1e9d
jgb1981-10-31t04.flac:31ce76d68a9fc7be97d17c61c6160a27
jgb1981-10-31t05.flac:6b6ed3b50dd47a3afdd35d0c654acabd
jgb1981-10-31t06.flac:741dcb6f81af4f88756f5436c82f4e36
jgb1981-10-31t07.flac:acec583eb6a342c7ea7a78f0a94b9782
jgb1981-10-31t08.flac:379d8e83b5e76f2853780dbcdf9ea736

Comments
Add Comment
Other Sources (comments)
JGB, early & late: John... (0) JGB; early; flac2448;... (0)
Date User Comment