Browse Collections Artists Sources   Search Dates

Add Show    List Management    Help


Grateful Dead 08/29/83
Silva Hall, Hult Center, Eugene, OR
Comments Add Comment    Source Collectors    Add to Collection    Add to Want List    History
Source # 135945 Other Sources
Entered by Matt Vernon
Checksums orig-ffp , ffp , flac-md5
Disc Counts 0 / 0
Media Size Compressed: 808.99 MB (848290228 bytes)
Uncompressed: 1.49 GB (1602620664 bytes)
Date Circulated
Date Added
06/11/2016
06/11/2016
Source Summary flac16; Soundboard > PCM;Sony L-750ESX-HFB Dynamicron EXCELLENT SUPER HIFI VIDEO CASSETTE-> Sony SLO-1800 STEREO VIDEOCASSETTE RECORDER-> Sony PCM-601ESD DIGITAL AUDIO PROCESSOR-> SP/DIF-> Mytek Stereo 192 Sample Rate Converter-> Upsampled to 44.1kHz/24bit-> SP/DIF-> RME FIREFACE 800-> FireWire 400-> Lenovo K450e Desktop PC-> WaveLab 6.11; Wavelab 7.1 for Minor Edits by Jamie Waddell; channels flipped, minor cuts, and tracked with Audacity-> flac level 8-> tagged with Tag&Rename and checksums with TLH; the original seed for this had errors 
  Archive
Source Information - Download Text | Download Zip
Grateful Dead
August 29, 1983
Eugene, Oregon
Silva Hall
Hult Center for the Performing Arts

Soundboard > PCM

Sony L-750ESX-HFB Dynamicron EXCELLENT SUPER HIFI VIDEO CASSETTE-> Sony SLO-1800 STEREO VIDEOCASSETTE RECORDER-> Sony PCM-601ESD DIGITAL AUDIO PROCESSOR-> SP/DIF-> Mytek Stereo 192 Sample Rate Converter-> Upsampled to 44.1kHz/24bit-> SP/DIF-> RME FIREFACE 800-> FireWire 400-> Lenovo K450e Desktop PC-> WaveLab 6.11

This recording was gratefully supplied by PO and Stucco TINA Holmes.

Wavelab 7.1 for Minor Edits by Jamie Waddell

channels flipped, minor cuts, and tracked with Audacity-> flac level 8->
tagged with Tag&Rename and checksums with TLH by Norm
16 bit 44.1kHz  a project **GEMS** June 11, 2016

-a few cuts, no patching done
-no further source lineage known


Set One
01. Shakedown Street
02. Minglewood Blues
03. Friend of the Devil
04. Hell in a Bucket
05. Birdsong
06. It's All Over Now
07. Might as Well


Set Two
08. China Cat Sunflower >
09. I Know You Rider
10. Estimated Prophet >
11. Eyes of the World >
12. Drums >
13. Space >
14. The Wheel >
15. The Other One >
16. Goin' Down the Road >
17. Johnny B. Goode

Encore:
18. U.S. Blues

    length     expanded size    cdr  WAVE problems  fmt   ratio  filename
    14:43.58      155897660 B   ---   --   ---xx   flac  0.5177  gd83-08-29s1t01.flac
     9:14.68       97885580 B   ---   --   ---xx   flac  0.5224  gd83-08-29s1t02.flac
     9:51.47      104362988 B   ---   --   ---xx   flac  0.5056  gd83-08-29s1t03.flac
     5:26.39       57598172 B   ---   --   ---xx   flac  0.5370  gd83-08-29s1t04.flac
    10:29.31      111028556 B   ---   --   ---xx   flac  0.5172  gd83-08-29s1t05.flac
     9:02.22       95660588 B   ---   --   ---xx   flac  0.5239  gd83-08-29s1t06.flac
     4:53.42       51784028 B   ---   --   ---xx   flac  0.5307  gd83-08-29s1t07.flac
     8:15.17       87358028 B   ---   --   ---xx   flac  0.5344  gd83-08-29s2t01.flac
     6:52.71       72843836 B   ---   --   ---xx   flac  0.5476  gd83-08-29s2t02.flac
    13:10.33      139433660 B   ---   --   ---xx   flac  0.5312  gd83-08-29s2t03.flac
    10:17.44      108942332 B   ---   --   ---xx   flac  0.5508  gd83-08-29s2t04.flac
    10:05.26      106783196 B   ---   --   ---xx   flac  0.5456  gd83-08-29s2t05.flac
     7:51.71       83251436 B   ---   --   ---xx   flac  0.5162  gd83-08-29s2t06.flac
     5:13.52       55335548 B   ---   --   ---xx   flac  0.5350  gd83-08-29s2t07.flac
     6:19.60       66996764 B   ---   --   ---xx   flac  0.5401  gd83-08-29s2t08.flac
     7:55.36       83874716 B   ---   --   ---xx   flac  0.5442  gd83-08-29s2t09.flac
     6:03.68       64193180 B   ---   --   ---xx   flac  0.5062  gd83-08-29s2t10.flac
     5:36.51       59390396 B   ---   --   ---xx   flac  0.5375  gd83-08-29s2t11.flac
   151:25.11     1602620664 B                            0.5293  (18 files)

Show Checksums
orig-ffp
gd83-08-29s1t01.flac:5d09b89d0c12e000027a1cd0d7a4cc43
gd83-08-29s1t02.flac:dbe8b5872e12ac2c7697002f70b9d722
gd83-08-29s1t03.flac:ca641022ff3f7aec93d167399eeca88f
gd83-08-29s1t04.flac:21bb67d917400752e8449eb5352c2fd8
gd83-08-29s1t05.flac:015a2c201d4c7a056a88f125a22c2d54
gd83-08-29s1t06.flac:11d4bcc72154a4506f5349065af435e2
gd83-08-29s1t07.flac:e5e53bd5cb5fd708eaf78c93426656cf
gd83-08-29s2t01.flac:eab81964f350d9236e8b7e9ea13e37f2
gd83-08-29s2t02.flac:c7f1f01ed24c0d0c0c7d322302c252d2
gd83-08-29s2t03.flac:efadd14c48b55de62c772779a092792c
gd83-08-29s2t04.flac:5ed4356e2923539f3e3324ae22cf72d7
gd83-08-29s2t05.flac:beaee2982c3dc0ce4a852214b98d1895
gd83-08-29s2t06.flac:661572dcd9afa144305bcfa63cca337c
gd83-08-29s2t07.flac:ff26ef2ec3bc75b4ebc5e9c1ca0f4a72
gd83-08-29s2t08.flac:f3de0c99a3723ed9276f448191f3e7eb
gd83-08-29s2t09.flac:66badb546516a6cfb5eb7a25e3b6c327
gd83-08-29s2t10.flac:36dd787854067371b2a03b32146482ce
gd83-08-29s2t11.flac:cd1576aa879e24ee36f2e5cc73abacb5
ffp
gd83-08-29s1t01.flac:1fac0f88ee95b8862121eff32b239da4
gd83-08-29s1t02.flac:f4852b8a81a99d35a47385252f17c4d1
gd83-08-29s1t03.flac:c45a22c62eca31a1d4d3a08367b7c7d4
gd83-08-29s1t04.flac:eb7c5d2853a3c2dff82ff45cfeac8cb6
gd83-08-29s1t05.flac:41d0fe743872b1c3fe921615f7f2762f
gd83-08-29s1t06.flac:3e87205ead41158be382cac97dd53ea0
gd83-08-29s1t07.flac:4786a33fd6a4df1afc3f38bf477ea19a
gd83-08-29s2t01.flac:cec58c3b392fa4e39397bb8168fb0913
gd83-08-29s2t02.flac:12aba823e21eb64d3a8b3bfd7159534c
gd83-08-29s2t03.flac:5ced6874d97a9bc952f8bbbe024d4972
gd83-08-29s2t04.flac:d2a1b864403ca60a0cc72010d4a1eebe
gd83-08-29s2t05.flac:01207bfac803da5df34cf4d7820da509
gd83-08-29s2t06.flac:43f7bf235468c186932665f790ec00d4
gd83-08-29s2t07.flac:d713086d77420193c426d5faffc7e934
gd83-08-29s2t08.flac:1bc0bccc552679f9551a07b9b462ef11
gd83-08-29s2t09.flac:65eb24b2d9246ed78e16b042804486a0
gd83-08-29s2t10.flac:71c8b3e26f11535c22a1310aa4bd7f76
gd83-08-29s2t11.flac:07f68a1455453b20d8a1ca9a329f984a
flac-md5
904a80da6739d33efff58de77966b4ba *gd83-08-29s1t01.flac
d25294196c812d10f35ec2d646037262 *gd83-08-29s1t02.flac
45c8a05bc88d2769851e62697032767a *gd83-08-29s1t03.flac
d3743ae3f41575f36602d8cc17f61bd1 *gd83-08-29s1t04.flac
4d9b8e43581c45f6b3be0352cf203ef6 *gd83-08-29s1t05.flac
8f4f9f749bcdd43ce8045d58fbafb829 *gd83-08-29s1t06.flac
534dcee3ec14add9bb40cce9430c07f6 *gd83-08-29s1t07.flac
7d05c2663d56db9b3d186afce65e389d *gd83-08-29s2t01.flac
96671e3e606ccf7a9dbf7ebc23cb21ff *gd83-08-29s2t02.flac
ba95ebf5fe43fe6d5618166e54caa197 *gd83-08-29s2t03.flac
74573702b93a72ad0e82e8bc0b07ab4a *gd83-08-29s2t04.flac
44952009ddb7bd3b092a1036e3f97a7a *gd83-08-29s2t05.flac
a6166dbbb85f834f84096aa0add2f5e5 *gd83-08-29s2t06.flac
39619a50b27f7de7e3b710e3070de548 *gd83-08-29s2t07.flac
8f86cdf766caeb7d07953e1a354e2e29 *gd83-08-29s2t08.flac
6b2b35b70dcae880c38456f3a7f40c56 *gd83-08-29s2t09.flac
ec363ef3d7062c218ba294a3d501f58d *gd83-08-29s2t10.flac
a9e9d0ec50c612568fb181f3c58d2e64 *gd83-08-29s2t11.flac

Comments
Add Comment
Other Sources (comments)
SBD>Cass(2)>DAT>CDR; Seeded... (0) flac16; Source:... (0) flac16; FOB AUD:... (0) flac16; Source: 2... (0) flac16/48kHz;... (0) flac24; Source Info:... (0) flac16; Source Info:... (0) flac16/44.1 ... (0) flac24/48 Source:... (0)
Date User Comment
06/12/2016 Wharfrat73 Updated info file and checksums.