Browse Collections Artists Sources   Search Dates

Add Show    List Management    Help


Grateful Dead 04/19/87
Irvine Meadows, Irvine, CA
Comments Add Comment    Source Collectors    Add to Collection    Add to Want List    History
Source # 135967 Other Sources
Entered by Matt Vernon
Checksums ffp , flac-md5
Disc Counts 0 / 0
Media Size Compressed: 781.08 MB (819026851 bytes)
Uncompressed: 1.58 GB (1692363884 bytes)
Date Circulated
Date Added
06/19/2016
06/18/2016
Source Summary flac16; Digital Soundboard/MTX > PCM copy; Sony L-750ESX-HFB Dynamicron EXCELLENT SUPER HIFI VIDEO CASSETTE-> Sony SLO-1800 STEREO VIDEOCASSETTE RECORDER-> Sony PCM-601ESD DIGITAL AUDIO PROCESSOR-> SP/DIF-> Mytek Stereo 192 Sample Rate Converter-> Upsampled to 44.1kHz/24bit-> SP/DIF-> RME FIREFACE 800-> FireWire 400-> Lenovo K450e Desktop PC-> WaveLab 6.11; tracked with Audacity-> flac level 8-> tagged with Tag&Rename and checksums with TLH by Norm; Wavelab 7.1 for Minor Edits by Jamie Waddell 
  Archive
Source Information - Download Text | Download Zip
Grateful Dead
April 19, 1987
Laguna Hills, CA
Irvine Meadows

Digital Soundboard/MTX > PCM copy

Sony L-750ESX-HFB Dynamicron EXCELLENT SUPER HIFI VIDEO CASSETTE-> Sony SLO-1800 STEREO VIDEOCASSETTE RECORDER-> Sony PCM-601ESD DIGITAL AUDIO PROCESSOR-> SP/DIF-> Mytek Stereo 192 Sample Rate Converter-> Upsampled to 44.1kHz/24bit-> SP/DIF-> RME FIREFACE 800-> FireWire 400-> Lenovo K450e Desktop PC-> WaveLab 6.11

tracked with Audacity-> flac level 8-> tagged with Tag&Rename and checksums with TLH by Norm

This recording was gratefully supplied by PO and Stucco TINA Holmes.

Wavelab 7.1 for Minor Edits by Jamie Waddell
16 bit 44.1kHz  a project **GEMS** 2016

- sounds very good

Set 1:
01. crowd
02. Mississippi Half-Step Uptown Toodeloo ->
03. Franklin's Tower
04. New Minglewood Blues
05. Ramble On Rose
06. Tons Of Steel
07. Box Of Rain
08. Cassidy
09. Alabama Getaway >
10. The Promised Land

Set 2:
11. crowd
12. China Cat Sunflower >
13. I Know You Rider >
14. Man Smart (Woman Smarter) >
15. Black Muddy River >
16. I Need A Miracle >
17. Cumberland Blues >
18. Drums ->
19. Space ->
20. The Other One >
21. Wharf Rat >
22. Not Fade Away

Encore
23. Not Fade Away >
24. Brokedown Palace
25. crowd and house music

originally shared at www.shnflac.net

    length     expanded size    cdr  WAVE problems  fmt   ratio  filename
     2:23.05       25237004 B   ---   --   ---xx   flac  0.3999  gd87-04-19s1t01.flac
     7:13.51       76501196 B   ---   --   ---xx   flac  0.5346  gd87-04-19s1t02.flac
     7:56.13       83997020 B   ---   --   ---xx   flac  0.5091  gd87-04-19s1t03.flac
    10:11.05      107792204 B   ---   --   ---xx   flac  0.4889  gd87-04-19s1t04.flac
     8:56.06       94564556 B   ---   --   ---xx   flac  0.4827  gd87-04-19s1t05.flac
     5:10.26       54745196 B   ---   --   ---xx   flac  0.5441  gd87-04-19s1t06.flac
     5:42.26       60389996 B   ---   --   ---xx   flac  0.5062  gd87-04-19s1t07.flac
     8:45.62       92755868 B   ---   --   ---xx   flac  0.4881  gd87-04-19s1t08.flac
     4:44.51       50217596 B   ---   --   ---xx   flac  0.5506  gd87-04-19s1t09.flac
     6:01.72       63849788 B   ---   --   ---xx   flac  0.5175  gd87-04-19s1t10.flac
     2:03.71       21864236 B   ---   --   ---xx   flac  0.3543  gd87-04-19s2t01.flac
     5:43.33       60582860 B   ---   --   ---xx   flac  0.5307  gd87-04-19s2t02.flac
     6:01.06       63694556 B   ---   --   ---xx   flac  0.5350  gd87-04-19s2t03.flac
     8:39.44       91655132 B   ---   --   ---xx   flac  0.5121  gd87-04-19s2t04.flac
     6:44.53       71390300 B   ---   --   ---xx   flac  0.4674  gd87-04-19s2t05.flac
     4:32.73       48152540 B   ---   --   ---xx   flac  0.5062  gd87-04-19s2t06.flac
     5:01.44       53199932 B   ---   --   ---xx   flac  0.5098  gd87-04-19s2t07.flac
     9:40.61      102455516 B   ---   --   ---xx   flac  0.4627  gd87-04-19s2t08.flac
     5:10.02       54688748 B   ---   --   ---xx   flac  0.3748  gd87-04-19s2t09.flac
     8:47.12       92991068 B   ---   --   ---xx   flac  0.4682  gd87-04-19s2t10.flac
     9:33.39      101168972 B   ---   --   ---xx   flac  0.4558  gd87-04-19s2t11.flac
     8:51.56       93800156 B   ---   --   ---xx   flac  0.4747  gd87-04-19s2t12.flac
     1:00.14       10616972 B   ---   --   ---xx   flac  0.4346  gd87-04-19s2t13.flac
     6:19.16       66893276 B   ---   --   ---xx   flac  0.4522  gd87-04-19s2t14.flac
     4:38.51       49159196 B   ---   --   ---xx   flac  0.3637  gd87-04-19s2t15.flac
   159:53.67     1692363884 B                            0.4840  (25 files)

Show Checksums
ffp
gd87-04-19s1t01.flac:2c1640eec3d1bbdfdccbe9898ff56734
gd87-04-19s1t02.flac:6dac0e6374b020e44d21dc4962b4b45c
gd87-04-19s1t03.flac:63fc12fecf16c01838e6667cf285172b
gd87-04-19s1t04.flac:1994ac91ab63686f88aed324062671e3
gd87-04-19s1t05.flac:cc39879841acac0ad5ce716014bebb96
gd87-04-19s1t06.flac:b0773b8dd1b85eb20c1647d2e09358f2
gd87-04-19s1t07.flac:6450c6c0e5a2709b0c864c4fa9028fe2
gd87-04-19s1t08.flac:3c871bc954d59c309ec3d10f0eee6a57
gd87-04-19s1t09.flac:c671735cc13e6c8797003e934a64f289
gd87-04-19s1t10.flac:6fb32cee1c06256dbe09d8c0a396dad8
gd87-04-19s2t01.flac:269a12f4c28a34a9006c3745ee67fe53
gd87-04-19s2t02.flac:8d1587c715c466244f73b8249e964003
gd87-04-19s2t03.flac:1a13980a4ff40ef706b6996452363c37
gd87-04-19s2t04.flac:8d43e3f2f66070bc8eb52cd5eddcdaf7
gd87-04-19s2t05.flac:ff25900e621563baf9c62b8a5adc68c7
gd87-04-19s2t06.flac:4e04c3b186fdab4751a3c28ef63dc77e
gd87-04-19s2t07.flac:854e996e637c12bfcabb708d3e37598e
gd87-04-19s2t08.flac:0817cc7b9c4df95fd01a40ca433988e1
gd87-04-19s2t09.flac:faf67de0cfedb6febc7522498310ea4e
gd87-04-19s2t10.flac:d8cd0054fba713e160c9fbdb08cf12ac
gd87-04-19s2t11.flac:541c9b6029686fd1fbc2fba94fbfd5cb
gd87-04-19s2t12.flac:970c77ab98352e1cf6c3bcdb63928373
gd87-04-19s2t13.flac:60cf8e3f553b73f9e03429da055ad5ac
gd87-04-19s2t14.flac:87138e1a4939dc5b7ef9fb6a27304dba
gd87-04-19s2t15.flac:01bc14fd7988f209a5789844e53c10bf
flac-md5
5bdcb0968a816f55d0a016ac07dce307 *gd87-04-19s1t01.flac
9b6ab3396a0d5965383e7692c97192ab *gd87-04-19s1t02.flac
54842fc97e2c0af22168019aeffcb8b7 *gd87-04-19s1t03.flac
5402c0c112c90bb12c9a04135d667335 *gd87-04-19s1t04.flac
9e2b019b876276d850c609c6d6785522 *gd87-04-19s1t05.flac
508308c9e9c311f90cf4f8c11cd8aa28 *gd87-04-19s1t06.flac
e5c335aa61c2a898917e766045996c09 *gd87-04-19s1t07.flac
d39929cdf36ff75dcd9f07c745f2799d *gd87-04-19s1t08.flac
3b2eb74aef8c27d0e0e0e69ebee2b111 *gd87-04-19s1t09.flac
150fc308cbb216a2bcc1d879edfcd92d *gd87-04-19s1t10.flac
d58bac9d7b8bcb07d025c4832a5a32c0 *gd87-04-19s2t01.flac
e7c7bb078091b5d14eda803a2d3239fc *gd87-04-19s2t02.flac
0ccb9144ec0569723823e586424832c8 *gd87-04-19s2t03.flac
03c77e9666d68ad65f24a7acb68201b8 *gd87-04-19s2t04.flac
d971e30733a6c91e3c7b60454b00f429 *gd87-04-19s2t05.flac
de569d4c23a429578ced5b3ac6e035bf *gd87-04-19s2t06.flac
046c2c4a1d60cd2bc6756d45815c143f *gd87-04-19s2t07.flac
868044ea1bcc86c146c100373c59e56b *gd87-04-19s2t08.flac
586406f2b79829d3ac41767d0b38d9d0 *gd87-04-19s2t09.flac
e39bf6483fe5a2117a62d30af8d5b1bb *gd87-04-19s2t10.flac
63fc755f74a0e2e50c8b440bf1471b62 *gd87-04-19s2t11.flac
b1dc7673b3ee6e98c11e14166557c95f *gd87-04-19s2t12.flac
ad9fcc2f169f3b1909c7687963422799 *gd87-04-19s2t13.flac
4bf99b6b9c632df547acefdac25cae00 *gd87-04-19s2t14.flac
c7299424cfd99fd13cd8780a9535be36 *gd87-04-19s2t15.flac

Comments
Add Comment
Other Sources (comments)
SBD > Cass Master > PCM >... (1) Healy Ultramix SBD/AUD> CM>... (0) Master Soundboard Casette >... (0) flac16; source:... (1) flac16; Recording... (0) flac16; Audience... (0) flac24; Recording... (0) flac16; Recording... (0)
Date User Comment