Browse Collections Artists Sources   Search Dates

Add Show    List Management    Help


Outformation 05/16/09
Rafter's, St. Simons Island, GA
Comments Add Comment    Source Collectors    Add to Collection    Add to Want List    History
Source # 136037 Other Sources
Entered by Todd
Checksums ffp
Disc Counts 0 / 0
Media Size
Date Circulated
Date Added
05/17/2009
06/23/2016
Source Summary source: Schoeps mk41v(AB) > kc5 > m222 > nt222 + mk21(nos) > kcy > vms5u > 744t (24/48) location: {mk41v(AB) LOC, 8\'from left stack} {mk21(nos) onstage/dfc} dsp: 744t > wavelab5 > cdwave > wavelab5 > flac(8) recorded & seeded: Charles Fox 
Source Information - Download Text | Download Zip
Outformation
Rafters
St Simons Island, GA
2009-05-16

source: Schoeps mk41v(AB) > kc5 > m222 > nt222 + mk21(nos) > kcy > vms5u > 744t (24/48)
location: {mk41v(AB) LOC, 8\'from left stack} {mk21(nos) onstage/dfc}
dsp: 744t > wavelab5 > cdwave > wavelab5 > flac(8)
recorded & seeded: Charles Fox

set 1 disc 1
01 Edgewater
02 Winds
03 Fastburn
04 Anymore
05 Check me out
06 11teen >
07 Stone in my Shoe
08 On yer mind

set 2 disc 2
01 Jam >
02 Titles>
03 Toys Lament >
04 Burned Faceless >
05 Jam>
06 Long Hard Ride >
07 Toys Lament
08 Hey>
09 Mercy Train to Bogart
10 Other One Jam >
11 War Pigs Jam>
12 Titles

set 2 disc 3
encore
01 Untitled Lee Song
02 Moral Decline
03 Midnight Promises
04 Cry In Your Beer >
05 Titles
Show Checksums
ffp
ffp
out2009-05-16d1t01.flac:9c669e77454fe9344665fb1ded5fc6e7
out2009-05-16d1t02.flac:a8905e6aaf37e38474d8f54e67f26d7c
out2009-05-16d1t03.flac:8a9090731d6e1147c419cc2aefd28494
out2009-05-16d1t04.flac:af76b777133d70daf3434c56fd844324
out2009-05-16d1t05.flac:8d74acded4a298e911bd6f8229fd3d07
out2009-05-16d1t06.flac:621a8d002a365ced975bc5a1ac8f4a8c
out2009-05-16d1t07.flac:da66d0cb60661a8e709b8266295b72f4
out2009-05-16d1t08.flac:976010355cd3e954c048f481dfae9996
out2009-05-16d2t01.flac:d6aacd5322b69015c2cd00b003588b59
out2009-05-16d2t02.flac:ff22b5c114e7f7c2ab6a922265cbb258
out2009-05-16d2t03.flac:bb5bef4ccb5b7ea8a9eec338d0b23110
out2009-05-16d2t04.flac:727560eb7b75fabcf83d2d8ac6bdede6
out2009-05-16d2t05.flac:787914b143521ecdb2dfee48f8379786
out2009-05-16d2t06.flac:1385c8571fe981e8b7f0337516640c73
out2009-05-16d2t07.flac:ea6c914c7558d9564aed6ff81fe4021e
out2009-05-16d2t08.flac:49552da4dfbdb95bd39e2ab3a38b0818
out2009-05-16d2t09.flac:729112c7337db0aea5a6099395e23b10
out2009-05-16d2t10.flac:1298dd010e35de91de8903b74dd780ae
out2009-05-16d2t11.flac:6bd58fa37acb96b7c72068f0124719a7
out2009-05-16d2t12.flac:1cf8ec45e68993a82e57da17c120a778
out2009-05-16d3t01.flac:225774b7bf3740b390f34d39a9c601f4
out2009-05-16d3t02.flac:22be2446ac48236af3373fa633fc3a55
out2009-05-16d3t03.flac:b27f09b96472bd6139c2e11b5a3757b8
out2009-05-16d3t04.flac:893367f20605033fb937e7f8dcdd2891
out2009-05-16d3t05.flac:0413a92339e9fdc53032baafe6d0fa49

shntool
length expanded size cdr WAVE problems filename
7:27.07 78867308 --- -- ---xx out2009-05-16d1t01.flac
9:21.01 98962796 --- -- ---xx out2009-05-16d1t02.flac
8:28.41 89707676 --- -- ---xx out2009-05-16d1t03.flac
4:23.68 46553180 --- -- ---xx out2009-05-16d1t04.flac
9:12.20 97419884 --- -- ---xx out2009-05-16d1t05.flac
3:40.28 38873900 --- -- ---xx out2009-05-16d1t06.flac
12:30.01 132302396 --- -- ---xx out2009-05-16d1t07.flac
7:09.58 75812060 --- -- ---xx out2009-05-16d1t08.flac
3:59.62 42305468 --- -- ---xx out2009-05-16d2t01.flac
8:48.12 93167468 --- -- ---xx out2009-05-16d2t02.flac
7:02.38 74530220 --- -- ---xx out2009-05-16d2t03.flac
3:17.48 34863740 --- -- ---xx out2009-05-16d2t04.flac
2:11.41 23204876 --- -- ---xx out2009-05-16d2t05.flac
5:10.66 54839276 --- -- ---xx out2009-05-16d2t06.flac
3:58.59 42122012 --- -- ---xx out2009-05-16d2t07.flac
6:57.31 73631756 --- -- ---xx out2009-05-16d2t08.flac
6:21.10 67231964 --- -- ---xx out2009-05-16d2t09.flac
7:28.05 79039004 --- -- ---xx out2009-05-16d2t10.flac
4:39.20 49262684 --- -- ---xx out2009-05-16d2t11.flac
8:50.06 93506156 --- -- ---xx out2009-05-16d2t12.flac
3:27.58 36651260 --- -- ---xx out2009-05-16d3t01.flac
6:36.42 69953228 --- -- ---xx out2009-05-16d3t02.flac
8:10.57 86570108 --- -- ---xx out2009-05-16d3t03.flac
6:59.14 73944572 --- -- ---xx out2009-05-16d3t04.flac
1:34.69 16743932 --- -- ---xx out2009-05-16d3t05.flac
157:47.37 1670066924 B (totals for 25 files, 0.5763 overall compression ratio)

Comments
Add Comment
Date User Comment