Browse Collections Artists Sources   Search Dates

Add Show    List Management    Help


Greensky Bluegrass 08/01/15
Gathering of the [email protected] Park, Bridgeport, CT
Comments Add Comment    Source Collectors    Add to Collection    Add to Want List    History
Source # 136147 Other Sources
Entered by
Checksums ffp
Disc Counts 1 / 1
Media Size
Uncompressed: 610.04 MB (639669176 bytes)
Date Circulated
Date Added
08/18/2015
06/28/2016
Source Summary DPA 4011 > V3 Digital > R44 (24/48k)
SDHC Card > Sound Forge Pro 2 (fades, Normalize, tracking, resample iZotope 64-Bit SRC, dither iZotope MBIT+ Dither) > xAct (Flac level 8, tagging, fix SBE)
OTS, ROC/DIN/10' ft. high  
Source Information - Download Text | Download Zip
Greensky Bluegrass
2015-08-01
Gathering of the Vibes
Seaside Park
Bridgeport, CT

DPA 4011 > V3 Digital > R44 (24/48k)
SDHC Card > Sound Forge Pro 2 (fades, Normalize, tracking, resample iZotope 64-Bit SRC, dither iZotope MBIT+ Dither) > xAct (Flac level 8, tagging, fix SBE)
OTS, ROC/DIN/10' ft. high

Taped and Transferred by Brian V.

Set 1

01. Demons
02. Handguns
03. Kerosene
04. Windshield
05. The Floor
06. Burn Them
07. Money for Nothing
08. Wings for Wheels
09. Hit Parade Of Love
10. Leap Year

***Support Bands That Allow Taping/Trading***

Flac Fingerprints
gsbg2015-08-01s1t01.flac:20fefd156ea4a29454f48241db000ca8
gsbg2015-08-01s1t02.flac:6b7593f878d4fb23551d5655d8bdd8ed
gsbg2015-08-01s1t03.flac:17f34b80c3eaf34ff1d9cb2502b1eeb5
gsbg2015-08-01s1t04.flac:57ccf5591e4f686e4858769d62f388e5
gsbg2015-08-01s1t05.flac:d5d60a7f68ca5566ce3fdc637eb77ab6
gsbg2015-08-01s1t06.flac:89abe570c060fb04e1aba4d29c887fc3
gsbg2015-08-01s1t07.flac:f9276eecffec3a52064266d5b25685be
gsbg2015-08-01s1t08.flac:ca043855d7eb4f7ab1f626547f9a9c75
gsbg2015-08-01s1t09.flac:01555e9accbfc32ce8c2b2a2e86c22d0
gsbg2015-08-01s1t10.flac:706f0a2e01303f85115975a9de45097a

shntool output
    length     expanded size    cdr  WAVE problems  fmt   ratio  filename
     5:39.02       59804348 B   ---   --   -----    wav  1.0000  gsbg2015-08-01s1t01.wav
     4:44.17       50137628 B   ---   --   -----    wav  1.0000  gsbg2015-08-01s1t02.wav
    11:23.59      120620012 B   ---   --   -----    wav  1.0000  gsbg2015-08-01s1t03.wav
     5:07.19       54199532 B   ---   --   -----    wav  1.0000  gsbg2015-08-01s1t04.wav
     3:58.24       42039692 B   ---   --   -----    wav  1.0000  gsbg2015-08-01s1t05.wav
     4:34.17       48373628 B   ---   --   -----    wav  1.0000  gsbg2015-08-01s1t06.wav
     5:45.69       61020332 B   ---   --   -----    wav  1.0000  gsbg2015-08-01s1t07.wav
     4:14.59       44944412 B   ---   --   -----    wav  1.0000  gsbg2015-08-01s1t08.wav
     2:55.41       30966476 B   ---   --   -----    wav  1.0000  gsbg2015-08-01s1t09.wav
    12:03.11      127563116 B   ---   --   -----    wav  1.0000  gsbg2015-08-01s1t10.wav
    60:26.18      639669176 B                            1.0000  (10 files)
Show Checksums
ffp
gsbg2015-08-01s1t01.flac:20fefd156ea4a29454f48241db000ca8
gsbg2015-08-01s1t02.flac:6b7593f878d4fb23551d5655d8bdd8ed
gsbg2015-08-01s1t03.flac:17f34b80c3eaf34ff1d9cb2502b1eeb5
gsbg2015-08-01s1t04.flac:57ccf5591e4f686e4858769d62f388e5
gsbg2015-08-01s1t05.flac:d5d60a7f68ca5566ce3fdc637eb77ab6
gsbg2015-08-01s1t06.flac:89abe570c060fb04e1aba4d29c887fc3
gsbg2015-08-01s1t07.flac:f9276eecffec3a52064266d5b25685be
gsbg2015-08-01s1t08.flac:ca043855d7eb4f7ab1f626547f9a9c75
gsbg2015-08-01s1t09.flac:01555e9accbfc32ce8c2b2a2e86c22d0
gsbg2015-08-01s1t10.flac:706f0a2e01303f85115975a9de45097a

Comments
Add Comment
Other Sources (comments)
flac16
OTS/~15'ROC;...
(0)
Date User Comment